↑↓Torrent.by
Поиск
Логин: Регистрация
Пароль: Восстановить пароль
Загрузка...

Снежная Королева: Зазеркалье (2018) WEB-DL 1080p | iTunes

Скачать snezhnaya-koroleva-zazerkale-2018-web-dl-1080p-itunes.torrent
U Магнитная ссылка Размер: 2.86 GB Раздают: 761 Качают: 145 Добавлен: 2019-02-14 06:36:17
Снежная Королева: Зазеркалье (2018) WEB-DL 1080p | iTunes

Название: Снежная Королева: Зазеркалье
Год выпуска: 2018
Жанр:  Мультфильм, приключения, семейный, фэнтези
Режиссер: Алексей Цицилин, Роберт Ленс
Роли озвучивали: Лина Иванова, Владимир Зайцев, Ольга Зубкова, Никита Прозоровский, Всеволод Кузнецов, Ляйсан Утяшева, Ирина Безрукова, Надежда Ангарская, Николай Быстров

Описание: Могущественный король Харальд чуть не потерял семью из-за Снежной Королевы. Он находит способ очистить мир от волшебства — все обладатели магических способностей отныне заточены в Зазеркалье. Остановить его и не дать сказке навсегда исчезнуть из нашего мира может только Герда. Ведь ее главная сила не в волшебстве, а вере в добро и дружбу. В новом приключении на помощь Герде придут тролли, пираты и даже сама Снежная Королева.

Страна: Россия
Студия: Централ Партнершип, Союзмультфильм, Wizart Animation
Продолжительность: 01:23:21
Перевод: Не требуется

Файл
Качество: WEB-DL 1080p
Формат: MKV
Видео: MPEG4 AVC Video, H264, 2.40:1, 1920x804, 25 fps, 4431 kbps, 0.115 bit/pixel
Аудио: Russian: AC3, 6 ch, 384 kbps, 16 bits, 48.0 KHz
Субтитры: Нет


[+] MediaInfo
General
Unique ID                   : 252280967938961620990850562558635855258 (0xBDCB8C0BD0550268A62131D7AFF4CD9A)
Complete name               : J:Снежная Королева. Зазеркалье 2018 WEB-DL 1080p.mkv
Format                      : Matroska
Format version              : Version 4 / Version 2
File size                   : 2.86 GiB
Duration                    : 1 h 23 min
Overall bit rate            : 4 913 kb/s
Encoded date                : UTC 2019-02-13 01:44:30
Writing application         : mkvmerge v6.1.0 ('Old Devil') built on Mar  2 2013 14:32:37
Writing library             : libebml v1.3.0 + libmatroska v1.4.0

Video
ID                          : 1
Format                      : AVC
Format/Info                 : Advanced Video Codec
Format profile              : High@L4
Format settings             : CABAC / 5 Ref Frames
Format settings, CABAC      : Yes
Format settings, ReFrames   : 5 frames
Codec ID                    : V_MPEG4/ISO/AVC
Duration                    : 1 h 23 min
Bit rate                    : 4 431 kb/s
Width                       : 1 920 pixels
Height                      : 804 pixels
Display aspect ratio        : 2.40:1
Frame rate mode             : Constant
Frame rate                  : 25.000 FPS
Color space                 : YUV
Chroma subsampling          : 4:2:0
Bit depth                   : 8 bits
Scan type                   : Progressive
Bits/(Pixel*Frame)          : 0.115
Stream size                 : 2.58 GiB (90%)
Language                    : Russian
Default                     : Yes
Forced                      : No
Color range                 : Limited
Color primaries             : BT.709
Transfer characteristics    : BT.709
Matrix coefficients         : BT.709

Audio
ID                          : 2
Format                      : AC-3
Format/Info                 : Audio Coding 3
Codec ID                    : A_AC3
Duration                    : 1 h 23 min
Bit rate mode               : Constant
Bit rate                    : 384 kb/s
Channel(s)                  : 6 channels
Channel positions           : Front: L C R, Side: L R, LFE
Sampling rate               : 48.0 kHz
Frame rate                  : 31.250 FPS (1536 SPF)
Bit depth                   : 16 bits
Compression mode            : Lossy
Stream size                 : 229 MiB (8%)
Language                    : Russian
Service kind                : Complete Main
Default                     : Yes
Forced                      : No

Menu
00:00:00.000                : en:Глава 1
00:05:03.080                : en:Глава 2
00:09:57.400                : en:Глава 3
00:14:21.240                : en:Глава 4
00:19:11.960                : en:Глава 5
00:24:50.720                : en:Глава 6
00:29:49.640                : en:Глава 7
00:35:07.519                : en:Глава 8
00:41:00.359                : en:Глава 9
00:47:09.719                : en:Глава 10
00:52:03.119                : en:Глава 11
00:57:20.158                : en:Глава 12
01:01:07.598                : en:Глава 13
01:05:57.637                : en:Глава 14
01:11:37.156                : en:Глава 15



Скриншоты:
[+] Всего файлов в раздаче - 1:
Снежная Королева. Зазеркалье 2018 WEB-DL 1080p.mkv2.86 GB

Показать еще раздачи по запросу снежная:
2019-03-03 U Снежная Королева: Зазеркалье (2018) WEB-DLRip-AVC от ExKinoRay | iTunes 1.64 GB ↑ 120 ↓ 15
2019-02-18 U Снежная Королева: Зазеркалье (2018) WEB-DLRip от Scarabey | iTunes 1.39 GB ↑ 121 ↓ 9
2019-02-15 U Снежная Королева: Зазеркалье (2018) WEB-DL 720p | iTunes 2.55 GB ↑ 138 ↓ 15
2019-02-14 U Снежная Королева: Зазеркалье (2018) WEB-DLRip от GeneralFilm | iTunes 1.37 GB ↑ 105 ↓ 23
2019-02-13 U Снежная Королева: Зазеркалье (2018) WEB-DLRip от MegaPeer | iTunes 1.46 GB ↑ 587 ↓ 235
2019-02-13 U Снежная Королева: Зазеркалье (2018) WEB-DLRip от GeneralFilm | iTunes 1К745.05 MB ↑ 208 ↓ 59
2017-12-24 U Сборник - Снежная новогодняя история (1956-2017) [24CD] MP3 от DON Music 1К4.16 GB ↑ 45 ↓ 122

Отзывы
wassap
Ну очень слабая анимация, не дотягивает до уровня диснея, пиксар и тп, но дочка вродь смотрела - если ей не нравится смотреть не будет, а тут вродь до конца смотрела. хз

Зарегистрируйтесь чтобы добавить комментарий.
Обратная связь
Copyleft ©