↑↓Torrent.by
Поиск
Логин: Регистрация
Пароль: Восстановить пароль
Загрузка...

Снежная Королева: Зазеркалье (2018) WEB-DLRip от GeneralFilm | iTunes

Скачать snezhnaya-koroleva-zazerkale-2018-web-dlrip-ot-generalfilm-itunes.torrent
U Магнитная ссылка Размер: 1.37 GB Раздают: 105 Качают: 23 Добавлен: 2019-02-14 12:34:58
Снежная Королева: Зазеркалье (2018) WEB-DLRip от GeneralFilm | iTunes

Оригинальное название: Снежная Королева: Зазеркалье
Год выпуска: 2018
Жанр:  мультфильм, комедия, приключения, семейный, фэнтези
Выпущено: Россия, «Централ Партнершип»
Режиссер: Алексей Цицилин, Роберт Ленс
В ролях: Лина Иванова, Владимир Зайцев, Ольга Зубкова, Никита Прозоровский, Всеволод Кузнецов, Ляйсан Утяшева, Ирина Безрукова, Надежда Ангарская, Николай Быстров

О фильме: Могущественный король Харальд чуть не потерял семью из-за Снежной Королевы. Он находит способ очистить мир от волшебства — все обладатели магических способностей отныне заточены в Зазеркалье. Остановить его и не дать сказке навсегда исчезнуть из нашего мира может только Герда. Ведь ее главная сила не в волшебстве, а вере в добро и дружбу. В новом приключении на помощь Герде придут тролли, пираты и даже сама Снежная Королева.

Качество: WEB-DLRip
Видео: XviD build 73, 720x304 (2.37:1), 25.000 fps, 1955 Kbps (0.357 bit/pixel)
Аудио: 48.0 kHz, AC3 6ch, 384 kbps
Продолжительность: 01:23:21
Перевод: Не требуется
Cубтитры: нет

Релиз:


[+] MediaInfo

General
Complete name               : D:RazdachiSnezhnaja.Koroleva.Zazerkalje.2018.1.45Gb.WEB-DLRip.GeneralFilm.avi
Format                      : AVI
Format/Info                 : Audio Video Interleave
File size                   : 1.37 GiB
Duration                    : 1 h 23 min
Overall bit rate            : 2 348 kb/s
Writing application         : VirtualDubMod 1.5.10.3 | www.virtualdub-fr.org || (build 2550/release)
Writing library             : VirtualDubMod build 2550/release

Video
ID                          : 0
Format                      : MPEG-4 Visual
Format profile              : Advanced Simple@L5
Format settings             : BVOP1 / Custom Matrix
Format settings, BVOP       : 1
Format settings, QPel       : No
Format settings, GMC        : No warppoints
Format settings, Matrix     : Custom
Codec ID                    : XVID
Codec ID/Hint               : XviD
Duration                    : 1 h 23 min
Bit rate                    : 1 955 kb/s
Width                       : 720 pixels
Height                      : 304 pixels
Display aspect ratio        : 2.35:1
Frame rate                  : 25.000 FPS
Color space                 : YUV
Chroma subsampling          : 4:2:0
Bit depth                   : 8 bits
Scan type                   : Progressive
Compression mode            : Lossy
Bits/(Pixel*Frame)          : 0.357
Stream size                 : 1.14 GiB (83%)
Writing library             : XviD 73

Audio
ID                          : 1
Format                      : AC-3
Format/Info                 : Audio Coding 3
Commercial name             : Dolby Digital
Codec ID                    : 2000
Duration                    : 1 h 23 min
Bit rate mode               : Constant
Bit rate                    : 384 kb/s
Channel(s)                  : 6 channels
Channel layout              : L R C LFE Ls Rs
Sampling rate               : 48.0 kHz
Frame rate                  : 31.250 FPS (1536 SPF)
Bit depth                   : 16 bits
Compression mode            : Lossy
Stream size                 : 229 MiB (16%)
Alignment                   : Split accross interleaves
Interleave, duration        : 40  ms (1.00 video frame)
Interleave, preload duratio : 500  ms
Service kind                : Complete Main



Скриншоты:
[+] Всего файлов в раздаче - 1:
Snezhnaja.Koroleva.Zazerkalje.2018.1.45Gb.WEB-DLRip.GeneralFilm.avi1.37 GB

Показать еще раздачи по запросу снежная:
2019-03-03 U Снежная Королева: Зазеркалье (2018) WEB-DLRip-AVC от ExKinoRay | iTunes 1.64 GB ↑ 61 ↓ 12
2019-02-18 U Снежная Королева: Зазеркалье (2018) WEB-DLRip от Scarabey | iTunes 1.39 GB ↑ 75 ↓ 9
2019-02-15 U Снежная Королева: Зазеркалье (2018) WEB-DL 720p | iTunes 2.55 GB ↑ 97 ↓ 15
2019-02-14 U Снежная Королева: Зазеркалье (2018) WEB-DL 1080p | iTunes 1К2.86 GB ↑ 714 ↓ 144
2019-02-13 U Снежная Королева: Зазеркалье (2018) WEB-DLRip от MegaPeer | iTunes 1.46 GB ↑ 547 ↓ 235
2019-02-13 U Снежная Королева: Зазеркалье (2018) WEB-DLRip от GeneralFilm | iTunes 1К745.05 MB ↑ 160 ↓ 59
2017-12-24 U Сборник - Снежная новогодняя история (1956-2017) [24CD] MP3 от DON Music 1К4.16 GB ↑ 45 ↓ 118

Отзывы
Зарегистрируйтесь чтобы добавить комментарий.
Обратная связь
Copyleft ©