↑↓Torrent.by
Поиск
Логин: Регистрация
Пароль: Восстановить пароль
Загрузка...

Ричард Львиное Сердце (1992) DVDRip-AVC от KORSAR

Скачать richard-lvinoe-serdce-1992-dvdrip-avc-ot-korsar.torrent
U Магнитная ссылка Размер: 1.75 GB Раздают: 93 Качают: 9 Добавлен: 2019-02-15 07:31:57
Ричард Львиное Сердце (1992) DVDRip-AVC от KORSAR

Ричард Львиное Сердце
Жанр:  приключения, история
Год выпуска: 1992
Продолжительность: 01:27:11
Режиссёр: Евгений Герасимов
В ролях:Александр Балуев, Армен Джигарханян, Сергей Жигунов, Светлана Аманова, Андрей Болтнев, Евгений Жариков, Евгений Герасимов
Виктор Степанов, Иван Мартынов, Леван Мсхиладзе

Описание: 1189 год. Почему гордый король Англии, завоеватель Палестины и Кипра, прервал крестовый поход и ушел от стен Иерусалима? Что объединило мусульман и христиан, которых стравливали политические авантюристы? Каким был легендарный Ричард Львиное Сердце? Ответ — в фильме, полном романтики и приключений.

Релиз:

Качество: DVDRip-AVC
Видео: MPEG-4 AVC, 690x494@755x494, 25 fps, 2375 Кбит/с
Аудио: AC3, 6 ch, 448 Кбит/с
Язык: Русский


[+] Инфо файл

x264 [info]: frame I:804   Avg QP:17.26  size: 62928
x264 [info]: frame P:28554 Avg QP:19.13  size: 30477
x264 [info]: frame B:101418 Avg QP:20.77  size:  6593
x264 [info]: consecutive B-frames:  1.9%  2.6%  8.3% 14.5% 25.3% 43.2%  3.6%  0.4%  0.1%  0.1%  0.0%
Общее
Уникальный идентификатор                 : 204345391220459286027266157098082301078 (0x99BB7DA4BC0F9880BE1A70E29EF0F496)
Полное имя                               : D:Ричард Львиное Сердце_1992-DVDRip-AVC_KORSAR.mkv
Формат                                   : Matroska
Версия формата                           : Version 2
Размер файла                             : 1,75 Гбайт
Продолжительность                        : 1 ч. 27 м.
Общий поток                              : 2881 Кбит/сек
Название фильма                          : Ричард Львиное Сердце_1992-DVDRip-AVC_KORSAR
Дата кодирования                         : UTC 2019-02-07 13:39:05
Программа кодирования                    : mkvmerge v5.8.0 ('No Sleep / Pillow') built on Sep  2 2012 15:37:04
Библиотека кодирования                   : libebml v1.2.3 + libmatroska v1.3.0

Видео
Идентификатор                            : 1
Формат                                   : AVC
Формат/Информация                        : Advanced Video Codec
Профиль формата                          : High@L4.1
Параметр CABAC формата                   : Да
Параметр ReFrames формата                : 15 кадров
Идентификатор кодека                     : V_MPEG4/ISO/AVC
Продолжительность                        : 1 ч. 27 м.
Битрейт                                  : 2375 Кбит/сек
Ширина                                   : 690 пикселей
Высота                                   : 494 пикселя
Соотношение сторон                       : 3:2
Соотношение сторон в оригинале           : 3:2
Режим частоты кадров                     : Постоянный
Частота кадров                           : 25,000 кадров/сек
Цветовое пространство                    : YUV
Субдискретизация насыщенности            : 4:2:0
Битовая глубина                          : 8 бит
Тип развёртки                            : Прогрессивная
Бит/(Пиксели*Кадры)                      : 0.279
Размер потока                            : 1,45 Гбайт (82%)
Библиотека кодирования                   : x264 core 152 r2851kMod ba24899
Настройки программы                      : cabac=1 / ref=15 / deblock=1:-2:-1 / analyse=0x3:0x133 / me=umh / subme=10 / psy=1 / fade_compensate=0.00 / psy_rd=1.05:0.10 / mixed_ref=1 / me_range=40 / chroma_me=1 / trellis=2 / 8x8dct=1 / cqm=0 / deadzone=21,11 / fast_pskip=1 / chroma_qp_offset=-3 / threads=12 / lookahead_threads=3 / sliced_threads=0 / nr=0 / decimate=1 / interlaced=0 / bluray_compat=0 / constrained_intra=0 / bframes=10 / b_pyramid=2 / b_adapt=2 / b_bias=0 / direct=1 / weightb=1 / open_gop=0 / weightp=2 / keyint=250 / keyint_min=25 / scenecut=40 / intra_refresh=0 / rc=crf / mbtree=0 / crf=18.0000 / qcomp=0.63 / qpmin=0 / qpmax=39 / qpstep=4 / ip_ratio=1.40 / pb_ratio=1.30 / aq=1:0.90
Язык                                     : English
Default                                  : Да
Forced                                   : Нет
Основные цвета                           : BT.601 PAL
Характеристики трансфера                 : BT.470 System B, BT.470 System G
Коэффициенты матрицы                     : BT.601

Аудио
Идентификатор                            : 2
Формат                                   : AC-3
Формат/Информация                        : Audio Coding 3
Расширение режима                        : CM (complete main)
Параметр Endianness формата              : Big
Идентификатор кодека                     : A_AC3
Продолжительность                        : 1 ч. 27 м.
Вид битрейта                             : Постоянный
Битрейт                                  : 448 Кбит/сек
Каналы                                   : 6 каналов
Расположение каналов                     : Front: L C R, Side: L R, LFE
Частота                                  : 48,0 КГц
Битовая глубина                          : 16 бит
Метод сжатия                             : С потерями
Задержка видео                           : 80 мс.
Размер потока                            : 279 Мбайт (16%)
Язык                                     : Russian
Default                                  : Да
Forced                                   : Нет

Меню
00:00:00.000                             : en:Chapter 1
00:02:22.800                             : en:Chapter 2
00:08:01.200                             : en:Chapter 3
00:13:04.200                             : en:Chapter 4
00:22:42.600                             : en:Chapter 5
00:42:06.000                             : en:Chapter 6
00:53:10.200                             : en:Chapter 7
01:08:55.800                             : en:Chapter 8
01:17:11.400                             : en:Chapter 9




Скриншоты:
[+] Всего файлов в раздаче - 1:
Ричард Львиное Сердце_1992-DVDRip-AVC_KORSAR.mkv1.75 GB

Показать еще раздачи по запросу ричард:
2018-12-13 U Ричард Морган - Черный человек (2018) MP3 1.47 GB ↑ 62 ↓ 12
2018-08-22 U Ричард О'Коннор - Психология вредных привычек (2015) PDF, FB2 4.74 MB ↑ 128 ↓ 27
2018-06-05 U Ричард Матесон - Сборник произведений (1961-2018) FB2 23.72 MB ↑ 451 ↓ 23
2018-03-03 U Нил Деграсс Тайсон, Дж. Ричард Готт, Майкл А. Стросс - Большое космическое путешествие (2018) FB2 15.35 MB ↑ 364 ↓ 9
2017-08-17 U Ричард Питер Джонсон / Richard Peter Johnson (2015) WEB-DLRip | L 1.36 GB ↑ 60 ↓ 22
2016-03-22 U Ричард Томпсон, Майкл А. Кремо - Неизвестная история человечества (1999) DOC 30.11 MB ↑ 435 ↓ 4
2016-03-03 U Ричард Старк (Дональд Уэстлейк) – Паркер 04. Плакальщик (2016) MP3 331.99 MB ↑ 17 ↓ 1

Отзывы
Stasg
Благодарю, за прекрасный фильм!

Зарегистрируйтесь чтобы добавить комментарий.
Обратная связь
Copyleft ©