↑↓Torrent.by
Поиск
Логин: Регистрация
Пароль: Восстановить пароль
Загрузка...

Рыцарь Кеннет (1993) DVDRip-AVC от KORSAR

Скачать rycar-kennet-1993-dvdrip-avc-ot-korsar.torrent
U Магнитная ссылка Размер: 1.49 GB Раздают: 87 Качают: 5 Добавлен: 2019-02-15 07:32:23
Рыцарь Кеннет (1993) DVDRip-AVC от KORSAR

Рыцарь Кеннет
Жанр:  приключения, военный, история
Год выпуска: 1993
Продолжительность: 01:03:27
Режиссёр: Евгений Герасимов
В ролях:Александр Балуев, Армен Джигарханян, Сергей Жигунов, Светлана Аманова, Андрей Болтнев, Евгений Жариков, Ирина Безрукова, Инга Будкевич, Сергей Данилевич, Евгений Герасимов

Описание: 1189 год. Третий крестовый поход, во главе которого стоял Ричард Львиное Сердце. Оправившись после тяжелой болезни, король приказывает продолжить поход на Иерусалим. Противники замышляют злодейское убийство. Рыцаря Кеннета из Шотландии обвиняют в измене, и король приговаривает его к смерти.
За Кеннета вступается султан Саладин, пригрозив ославить Ричарда, если тот не пощадит рыцаря. Ричард пощадил Кеннета, отдав его в рабы Саладину и потребовав, чтобы тот никогда не появлялся на его пути. Но Саладин посылает Кеннета Ричарду в подарок, переодев его арабом и накрасив лицо черной краской. И как раз вовремя: Кеннет расправляется с «посланником», подосланным тамплиерами убить Ричарда…

Релиз:

Качество: DVDRip-AVC
Видео: MPEG-4 AVC, 686x496@754x496, 25 fps, 2275 Кбит/с
Аудио: AC3, 6 ch, 448 Кбит/с
Язык: Русский


[+] Инфо файл

x264 [info]: frame I:641   Avg QP:18.19  size: 70147
x264 [info]: frame P:24482 Avg QP:19.69  size: 34268
x264 [info]: frame B:70064 Avg QP:21.60  size:  7143
x264 [info]: consecutive B-frames:  3.7%  4.4% 14.9% 22.4% 26.2% 26.3%  1.8%  0.2%  0.2%
Общее
Уникальный идентификатор                 : 180941515086231640422808210872555611622 (0x8820117620B5FC89989F0A77202125E6)
Полное имя                               : D:Рыцарь Кеннет_1993-DVDRip-AVC_KORSAR.mkv
Формат                                   : Matroska
Версия формата                           : Version 2
Размер файла                             : 1,49 Гбайт
Продолжительность                        : 1 ч. 3 м.
Общий поток                              : 3359 Кбит/сек
Название фильма                          : Рыцарь Кеннет_1993-DVDRip-AVC_KORSAR
Дата кодирования                         : UTC 2019-02-07 21:10:44
Программа кодирования                    : mkvmerge v5.8.0 ('No Sleep / Pillow') built on Sep  2 2012 15:37:04
Библиотека кодирования                   : libebml v1.2.3 + libmatroska v1.3.0

Видео
Идентификатор                            : 1
Формат                                   : AVC
Формат/Информация                        : Advanced Video Codec
Профиль формата                          : High@L4.1
Параметр CABAC формата                   : Да
Параметр ReFrames формата                : 14 кадров
Идентификатор кодека                     : V_MPEG4/ISO/AVC
Продолжительность                        : 1 ч. 3 м.
Битрейт                                  : 2844 Кбит/сек
Ширина                                   : 686 пикселей
Высота                                   : 496 пикселей
Соотношение сторон                       : 3:2
Режим частоты кадров                     : Постоянный
Частота кадров                           : 25,000 кадров/сек
Цветовое пространство                    : YUV
Субдискретизация насыщенности            : 4:2:0
Битовая глубина                          : 8 бит
Тип развёртки                            : Прогрессивная
Бит/(Пиксели*Кадры)                      : 0.334
Размер потока                            : 1,26 Гбайт (85%)
Библиотека кодирования                   : x264 core 152 r2851kMod ba24899
Настройки программы                      : cabac=1 / ref=14 / deblock=1:-2:-1 / analyse=0x3:0x133 / me=umh / subme=10 / psy=1 / fade_compensate=0.00 / psy_rd=1.05:0.10 / mixed_ref=1 / me_range=40 / chroma_me=1 / trellis=2 / 8x8dct=1 / cqm=0 / deadzone=21,11 / fast_pskip=1 / chroma_qp_offset=-3 / threads=12 / lookahead_threads=2 / sliced_threads=0 / nr=0 / decimate=1 / interlaced=0 / bluray_compat=0 / constrained_intra=0 / bframes=8 / b_pyramid=2 / b_adapt=2 / b_bias=0 / direct=1 / weightb=1 / open_gop=0 / weightp=2 / keyint=250 / keyint_min=25 / scenecut=40 / intra_refresh=0 / rc=crf / mbtree=0 / crf=17.5000 / qcomp=0.63 / qpmin=0 / qpmax=39 / qpstep=4 / ip_ratio=1.40 / pb_ratio=1.30 / aq=1:0.90
Язык                                     : English
Default                                  : Да
Forced                                   : Нет
Основные цвета                           : BT.601 PAL
Характеристики трансфера                 : BT.470 System B, BT.470 System G
Коэффициенты матрицы                     : BT.601

Аудио
Идентификатор                            : 2
Формат                                   : AC-3
Формат/Информация                        : Audio Coding 3
Расширение режима                        : CM (complete main)
Параметр Endianness формата              : Big
Идентификатор кодека                     : A_AC3
Продолжительность                        : 1 ч. 3 м.
Вид битрейта                             : Постоянный
Битрейт                                  : 448 Кбит/сек
Каналы                                   : 6 каналов
Расположение каналов                     : Front: L C R, Side: L R, LFE
Частота                                  : 48,0 КГц
Битовая глубина                          : 16 бит
Метод сжатия                             : С потерями
Задержка видео                           : 16 мс.
Размер потока                            : 203 Мбайт (13%)
Язык                                     : Russian
Default                                  : Да
Forced                                   : Нет

Меню
00:00:00.000                             : en:Chapter 1
00:01:49.200                             : en:Chapter 2
00:07:27.600                             : en:Chapter 3
00:13:15.600                             : en:Chapter 4
00:22:09.000                             : en:Chapter 5
00:29:29.400                             : en:Chapter 6
00:39:07.800                             : en:Chapter 7
00:50:03.000                             : en:Chapter 8
00:54:24.600                             : en:Chapter 9




Скриншоты:
[+] Всего файлов в раздаче - 1:
Рыцарь Кеннет_1993-DVDRip-AVC_KORSAR.mkv1.49 GB

Показать еще раздачи по запросу рыцарь:
2018-12-13 U Калбазов Константин – Рыцарь. Царство Небесное (2018) MP3 311.89 MB ↑ 77 ↓ 10
2018-08-16 U Рыцарь дня / Knight and Day (2010) WEB-DLRip от Scarabey | D | Open Matte 1.45 GB ↑ 113 ↓ 12
2018-07-28 U Рыцарь дня / Knight and Day (2010) WEB-DLRip-AVC | D | Open Matte 2.18 GB ↑ 42 ↓ 18
2018-07-28 U Рыцарь дня / Knight and Day (2010) WEB-DL 1080p | D | Open Matte 11.27 GB ↑ 40 ↓ 25
2018-03-11 U Петр Власов - Рыцарь, кот и балерина. Приключения эрмитажных котов (2016) FB2 2.11 MB ↑ 151 ↓ 5
2018-02-11 U Трансформеры: Последний рыцарь / Transformers: The Last Knight (2017) BDRip-HEVC 2160p от HANNIBAL | D | IMAX edition 21.93 GB ↑ 32 ↓ 39
2017-11-20 U Трансформеры: Последний рыцарь / Transformers: The Last Knight (2017) BDRip от ExKinoRay | Лицензия 2.18 GB ↑ 220 ↓ 64

Отзывы
Зарегистрируйтесь чтобы добавить комментарий.
Обратная связь
Copyleft ©