↑↓Torrent.by
Поиск
Логин: Регистрация
Пароль: Восстановить пароль
Загрузка...

Фантастические твари: Преступления Грин-де-Вальда / Fantastic Beasts: The Crimes of Grindelwald (2018) WEB-DL 1080p от селезень | D, P | iTunes

Скачать fantasticheskie-tvari-prestupleniya-grin-de-valda-fantastic-beasts-the-crimes-of-grindelwald-2018-web-dl-1080p-ot-selezen-d-p-itunes.torrent
U Магнитная ссылка Размер: 5.28 GB Раздают: 1781 Качают: 1068 Добавлен: 2019-02-16 08:49:14
Фантастические твари: Преступления Грин-де-Вальда / Fantastic Beasts: The Crimes of Grindelwald (2018) WEB-DL 1080p от селезень | D, P | iTunes

Название: Фантастические твари: Преступления Грин-де-Вальда
Оригинальное название: Fantastic Beasts: The Crimes of Grindelwald
Год выхода: 2018
Жанр: Фэнтези, приключения, семейный
Режиссер: Дэвид Йейтс
В ролях: Эдди Редмэйн, Джонни Депп, Кэтрин Уотерстон, Элисон Судол, Дэн Фоглер, Эзра Миллер, Джуд Лоу, Кевин Гатри, Кармен Эджого, Вольф Рот, Зои Кравиц, Каллум Тернер, Дерек Ридделл, Корнелл Джон, Клаудия Ким, Ингвар Эггерт Сигюрдссон, Поппи Корби-Туч, Эндрю Тернер, Дэвид Сакурай, Клавдий Питерс

О фильме: Могущественный тёмный волшебник Геллерт Грин-де-Вальд пойман в Штатах, но не собирается молча сидеть в темнице и устраивает грандиозный побег. Теперь ничто не помешает ему добиться своей цели — установить превосходство волшебников над всеми немагическими существами на планете. Чтобы сорвать планы Грин-де-Вальда, Альбус Дамблдор обращается к своему бывшему студенту Ньюту Саламандеру, который соглашается помочь, не подозревая, какая опасность ему грозит. В раскалывающемся на части волшебном мире любовь и верность проверяются на прочность, а конфликт разделяет даже настоящих друзей и членов семей.

Страна: Великобритания, США
Студия: Heyday Films, Warner Bros
Продолжительность: 02:13:49
Перевод(ы):
#1: Дублированный | iTunes
#2: Профессиональный многоголосый | HDRezka Studio

Качество: WEB-DL 1080p
Видео: MPEG-4 AVC, 1920x800, 4558 Kbit/s, 23.976 fps
Звук:
Аудио #01: 48 kHz, AC3, 5.1, 384 Kbps | iTunes | RUS |
Аудио #02: 48 kHz, AC3, 2.0, 192 Kbps | HDRezka Studio | RUS |
Аудио #03: 48 kHz, AAC, 2.0, 126 Kbps | iTunes | UKR |
Аудио #04: 48 kHz, AC3, 5.1, 384 Kbps | Оригинал |  ENG |
Субтитры: Русские (Forced, full), украинские (Forced), английские

Релиз:


[+] MI
General
Unique ID                   : 150354189947988037790996698664489498792 (0x711D29E62DA30576B7DAEBB424B8B8A8)
Complete name               : D:Video111Fantastic.Beasts.the.Crimes.of.Grindelwald.2018.WEB-DL.1080p.seleZen.mkv
Format                      : Matroska
Format version              : Version 4
File size                   : 5.28 GiB
Duration                    : 2 h 13 min
Overall bit rate            : 5 647 kb/s
Movie name                  : Fantastic Beasts The Crimes of Grindelwald 2018 from селезень
Encoded date                : UTC 2019-02-15 19:19:18
Writing application         : mkvmerge v29.0.0 ('Like It Or Not') 64-bit
Writing library             : libebml v1.3.6 + libmatroska v1.4.9

Video
ID                          : 1
Format                      : AVC
Format/Info                 : Advanced Video Codec
Format profile              : High@L4
Format settings             : CABAC / 5 Ref Frames
Format settings, CABAC      : Yes
Format settings, ReFrames   : 5 frames
Codec ID                    : V_MPEG4/ISO/AVC
Duration                    : 2 h 13 min
Bit rate                    : 4 558 kb/s
Width                       : 1 920 pixels
Height                      : 800 pixels
Display aspect ratio        : 2.40:1
Frame rate mode             : Constant
Frame rate                  : 23.976 (24000/1001) FPS
Color space                 : YUV
Chroma subsampling          : 4:2:0
Bit depth                   : 8 bits
Scan type                   : Progressive
Bits/(Pixel*Frame)          : 0.124
Stream size                 : 4.26 GiB (81%)
Language                    : English
Default                     : Yes
Forced                      : No
Color range                 : Limited
Color primaries             : BT.709
Transfer characteristics    : BT.709
Matrix coefficients         : BT.709

Audio #1
ID                          : 2
Format                      : AC-3
Format/Info                 : Audio Coding 3
Commercial name             : Dolby Digital
Codec ID                    : A_AC3
Duration                    : 2 h 13 min
Bit rate mode               : Constant
Bit rate                    : 384 kb/s
Channel(s)                  : 6 channels
Channel layout              : L R C LFE Ls Rs
Sampling rate               : 48.0 kHz
Frame rate                  : 31.250 FPS (1536 SPF)
Bit depth                   : 16 bits
Compression mode            : Lossy
Stream size                 : 368 MiB (7%)
Title                       : iTunes
Language                    : Russian
Service kind                : Complete Main
Default                     : Yes
Forced                      : Yes

Audio #2
ID                          : 3
Format                      : AC-3
Format/Info                 : Audio Coding 3
Commercial name             : Dolby Digital
Codec ID                    : A_AC3
Duration                    : 2 h 13 min
Bit rate mode               : Constant
Bit rate                    : 192 kb/s
Channel(s)                  : 2 channels
Channel layout              : L R
Sampling rate               : 48.0 kHz
Frame rate                  : 31.250 FPS (1536 SPF)
Bit depth                   : 16 bits
Compression mode            : Lossy
Stream size                 : 184 MiB (3%)
Title                       : MVO [HDRezka Studio]
Language                    : Russian
Service kind                : Complete Main
Default                     : No
Forced                      : No

Audio #3
ID                          : 4
Format                      : AAC LC
Format/Info                 : Advanced Audio Codec Low Complexity
Codec ID                    : A_AAC-2
Duration                    : 2 h 13 min
Bit rate                    : 126 kb/s
Channel(s)                  : 2 channels
Channel layout              : L R
Sampling rate               : 44.1 kHz
Frame rate                  : 43.066 FPS (1024 SPF)
Compression mode            : Lossy
Stream size                 : 120 MiB (2%)
Title                       : iTunes
Language                    : Ukrainian
Default                     : No
Forced                      : No

Audio #4
ID                          : 5
Format                      : AC-3
Format/Info                 : Audio Coding 3
Commercial name             : Dolby Digital
Codec ID                    : A_AC3
Duration                    : 2 h 13 min
Bit rate mode               : Constant
Bit rate                    : 384 kb/s
Channel(s)                  : 6 channels
Channel layout              : L R C LFE Ls Rs
Sampling rate               : 48.0 kHz
Frame rate                  : 31.250 FPS (1536 SPF)
Bit depth                   : 16 bits
Compression mode            : Lossy
Stream size                 : 368 MiB (7%)
Title                       : Original
Language                    : English
Service kind                : Complete Main
Default                     : No
Forced                      : No

Text #1
ID                          : 6
Format                      : UTF-8
Codec ID                    : S_TEXT/UTF8
Codec ID/Info               : UTF-8 Plain Text
Duration                    : 2 h 0 min
Bit rate                    : 1 b/s
Count of elements           : 25
Stream size                 : 1.13 KiB (0%)
Title                       : Forced
Language                    : Russian
Default                     : Yes
Forced                      : Yes

Text #2
ID                          : 7
Format                      : UTF-8
Codec ID                    : S_TEXT/UTF8
Codec ID/Info               : UTF-8 Plain Text
Duration                    : 2 h 4 min
Bit rate                    : 70 b/s
Count of elements           : 1249
Stream size                 : 63.9 KiB (0%)
Title                       : Full
Language                    : Russian
Default                     : No
Forced                      : No

Text #3
ID                          : 8
Format                      : UTF-8
Codec ID                    : S_TEXT/UTF8
Codec ID/Info               : UTF-8 Plain Text
Duration                    : 2 h 3 min
Bit rate                    : 68 b/s
Count of elements           : 1190
Stream size                 : 62.2 KiB (0%)
Title                       : Full v.2
Language                    : Russian
Default                     : No
Forced                      : No

Text #4
ID                          : 9
Format                      : UTF-8
Codec ID                    : S_TEXT/UTF8
Codec ID/Info               : UTF-8 Plain Text
Duration                    : 2 h 13 min
Bit rate                    : 1 b/s
Count of elements           : 28
Stream size                 : 1.19 KiB (0%)
Title                       : Forced
Language                    : Ukrainian
Default                     : No
Forced                      : No

Text #5
ID                          : 10
Format                      : UTF-8
Codec ID                    : S_TEXT/UTF8
Codec ID/Info               : UTF-8 Plain Text
Duration                    : 2 h 3 min
Bit rate                    : 40 b/s
Count of elements           : 1185
Stream size                 : 36.8 KiB (0%)
Language                    : English
Default                     : No
Forced                      : No

Menu
00:00:00.000                : en:1
00:14:08.000                : en:2
00:21:40.000                : en:3
00:31:51.000                : en:4
00:41:42.000                : en:5
00:56:04.000                : en:6
01:05:57.000                : en:7
01:15:14.000                : en:8
01:24:48.000                : en:9
01:34:51.000                : en:10
01:43:09.000                : en:11
01:51:50.000                : en:12
02:00:33.000                : en:13
02:05:11.000                : en:14



Скриншоты:
[+] Всего файлов в раздаче - 1:
Fantastic.Beasts.the.Crimes.of.Grindelwald.2018.WEB-DL.1080p.seleZen.mkv5.28 GB

Показать еще раздачи по запросу фантастические:
2019-03-13 U Фантастические твари: Преступления Грин-де-Вальда / Fantastic Beasts: The Crimes of Grindelwald (2018) BDRip 1080p от Ash61 | 3D-Video | halfOU | Лицензия 11.48 GB ↑ 66 ↓ 47
2019-03-10 U Фантастические твари: Преступления Грин-де-Вальда / Fantastic Beasts: The Crimes of Grindelwald (2018) BDRip 720p от Scarabey | Лицензия 5.56 GB ↑ 90 ↓ 20
2019-03-09 U Фантастические твари: Преступления Грин-де-Вальда / Fantastic Beasts: The Crimes of Grindelwald (2018) BDRip-AVC от HELLYWOOD | Лицензия 1К2.92 GB ↑ 111 ↓ 31
2019-03-09 U Фантастические твари: Преступления Грин-де-Вальда / Fantastic Beasts: The Crimes of Grindelwald (2018) BDRip от MegaPeer | Лицензия 1.46 GB ↑ 177 ↓ 83
2019-03-09 U Фантастические твари: Преступления Грин-де-Вальда / Fantastic Beasts: The Crimes of Grindelwald (2018) UHD BDRemux 2160p от селезень | 4K | HDR | D, P | Лицензия 51.63 GB ↑ 34 ↓ 27
2019-03-09 U Фантастические твари: Преступления Грин-де-Вальда / Fantastic Beasts: The Crimes of Grindelwald (2018) BDRip 1080p от qqss44 & MegaPeer | Лицензия 7.58 GB ↑ 59 ↓ 28
2019-03-09 U Фантастические твари: Преступления Грин-де-Вальда / Fantastic Beasts: The Crimes of Grindelwald (2018) BDRip от MegaPeer | Лицензия 2.18 GB ↑ 48 ↓ 8

Отзывы
Зарегистрируйтесь чтобы добавить комментарий.
Обратная связь
Copyleft ©