↑↓Torrent.by
Поиск
Логин: Регистрация
Пароль: Восстановить пароль
Загрузка...

Любовный треугольник (2019) WEB-DLRip GeneralFilm

Скачать lyubovnyy-treugolnik-2019-web-dlrip-generalfilm.torrent
U Магнитная ссылка Размер: 743.38 MB Раздают: 319 Качают: 51 Добавлен: 2019-02-16 08:49:43
Любовный треугольник (2019) WEB-DLRip GeneralFilm

Оригинальное название: Любовный треугольник
Год выпуска: 2019
Жанр:  Мелодрама, комедия
Выпущено: Россия, Студия Дмитрия Куповых "Свободное кино", Verum Films, Студия "Le Roi"
Режиссер: Байбулат Батуллин, Александр Ермолин, Наталья Назарова
В ролях: Лев Коткин, Мария Корытова, Арина Постникова, Сергей Епишев, Яна Дюбуи, Евгений Старцев, Мария Смольникова, Константин Муханов, Нариман Бекбулатов-Арешев, Виктория Рунцова, Алексей Марков, Всеволод Макаров, Татьяна Плетнёва

Качество: WEB-DLRip
Видео: XviD build 73, 720x400 (16:9), 24.000 fps, 1404 Kbps (0.203 bit/pixel)
Аудио: 48.0 kHz, MP3, 2/0 ch, 128 kbps
Продолжительность: 01:07:27
Перевод: Не требуется
Cубтитры: нет

Релиз:


[+] MediaInfo

General
Complete name               : D:RazdachiLiubovnyj.Treugoljnik.2019.WEB-DLRip.GeneralFilm.avi
Format                      : AVI
Format/Info                 : Audio Video Interleave
File size                   : 743 MiB
Duration                    : 1 h 7 min
Overall bit rate            : 1 541 kb/s
Writing application         : VirtualDubMod 1.5.10.3 | www.virtualdub-fr.org || (build 2550/release)
Writing library             : VirtualDubMod build 2550/release

Video
ID                          : 0
Format                      : MPEG-4 Visual
Format profile              : Advanced Simple@L5
Format settings             : BVOP1 / Custom Matrix
Format settings, BVOP       : 1
Format settings, QPel       : No
Format settings, GMC        : No warppoints
Format settings, Matrix     : Custom
Codec ID                    : XVID
Codec ID/Hint               : XviD
Duration                    : 1 h 7 min
Bit rate                    : 1 404 kb/s
Width                       : 720 pixels
Height                      : 400 pixels
Display aspect ratio        : 16:9
Frame rate                  : 24.000 FPS
Color space                 : YUV
Chroma subsampling          : 4:2:0
Bit depth                   : 8 bits
Scan type                   : Progressive
Compression mode            : Lossy
Bits/(Pixel*Frame)          : 0.203
Stream size                 : 677 MiB (91%)
Writing library             : XviD 73

Audio
ID                          : 1
Format                      : MPEG Audio
Format version              : Version 1
Format profile              : Layer 3
Codec ID                    : 55
Codec ID/Hint               : MP3
Duration                    : 1 h 7 min
Bit rate mode               : Constant
Bit rate                    : 128 kb/s
Channel(s)                  : 2 channels
Sampling rate               : 48.0 kHz
Frame rate                  : 41.667 FPS (1152 SPF)
Compression mode            : Lossy
Stream size                 : 61.8 MiB (8%)
Alignment                   : Aligned on interleaves
Interleave, duration        : 42  ms (1.00 video frame)
Interleave, preload duratio : 504  ms
Writing library             : LAME3.99r
Encoding settings           : -m s -V 4 -q 2 -lowpass 17 -b 128



Скриншоты:
[+] Всего файлов в раздаче - 1:
Liubovnyj.Treugoljnik.2019.WEB-DLRip.GeneralFilm.avi743.38 MB

Показать еще раздачи по запросу любовный:
2019-03-11 U Любовный напиток №9 / Love Potion No. 9 (1992) WEB-DLRip 720p от k.e.n & MegaPeer | P, A 4.37 GB ↑ 103 ↓ 17
2019-02-18 U Любовный треугольник (2019) WEB-DLRip от Generalfilm | КПК 265.31 MB ↑ 58 ↓ 5
2019-02-16 U Любовный треугольник (2019) WEB-DLRip-AVC 1.21 GB ↑ 209 ↓ 41
2019-02-15 U Любовный треугольник (2019) WEB-DL 1080p 2.61 GB ↑ 481 ↓ 167
2014-02-12 U Эротический любовный массаж [2001, DVDRip] 349.05 MB ↑ 2364 ↓ 79
2013-12-08 U Любовный случай, или Трагедия служащей почтово-телеграфного узла / Ljubavni slucaj ili tragedija sluzbenice (1967) DVDRip 829.46 MB ↑ 85 ↓ 25
2013-11-07 U Любовный переплет / The Oranges (2011) HDRip | Лицензия 1.46 GB ↑ 359 ↓ 18

Отзывы
Зарегистрируйтесь чтобы добавить комментарий.
Обратная связь
Copyleft ©