↑↓Torrent.by
Поиск
Логин: Регистрация
Пароль: Восстановить пароль
Загрузка...

На край света (2018) WEBRip от GeneralFilm

Скачать na-kray-sveta-2018-webrip-ot-generalfilm.torrent
U Магнитная ссылка Размер: 746.12 MB Раздают: 141 Качают: 22 Добавлен: 2019-02-16 08:51:11
На край света (2018) WEBRip от GeneralFilm

Оригинальное название: На край света
Год выпуска: 2018
Жанр:  Мелодрама, комедия
Выпущено: Россия, ГудСториМедиа по заказу телеканала ТНТ
Режиссер: Илья Аксёнов
В ролях: Борис Дергачев, Дарья Руденок, Никита Павленко, Алина Алексеева (II), Гэ Ян, Никита Ефремов, Джунсуке Киносита, Татьяна Смирнова, Алексей Владиславов, Игорь Новокшонов

О фильме: Комедийная история о том, что поиск любви иногда помогает найти себя. Инфантильный парень Миша никак не может решиться сделать своей девушке предложение. Она, обидевшись, уезжает во Владивосток. Миша едет за ней, чтобы уговорить вернуться и начать все заново. Но в поездке понимает, что гонится не за любимой, а за привычным состоянием комфорта, и встречает во Владивостоке новую любовь.

Качество: WEBRip
Видео: XviD build 73, 720x304 (2.37:1), 25.000 fps, 980 Kbps (0.179 bit/pixel)
Аудио: 48.0 kHz, MP3, 2/0 ch, 128 kbps
Продолжительность: 01:33:20
Перевод: Не требуется
Cубтитры: нет

Релиз:


[+] MediaInfo

General
Complete name               : D:RazdachiNa.kray.sveta.2018.WEB-DLRip.GeneralFilm.avi
Format                      : AVI
Format/Info                 : Audio Video Interleave
File size                   : 746 MiB
Duration                    : 1 h 33 min
Overall bit rate            : 1 118 kb/s
Writing application         : VirtualDubMod 1.5.10.3 | www.virtualdub-fr.org || (build 2550/release)
Writing library             : VirtualDubMod build 2550/release

Video
ID                          : 0
Format                      : MPEG-4 Visual
Format profile              : Advanced Simple@L5
Format settings             : BVOP1 / Custom Matrix
Format settings, BVOP       : 1
Format settings, QPel       : No
Format settings, GMC        : No warppoints
Format settings, Matrix     : Custom
Codec ID                    : XVID
Codec ID/Hint               : XviD
Duration                    : 1 h 33 min
Bit rate                    : 980 kb/s
Width                       : 720 pixels
Height                      : 304 pixels
Display aspect ratio        : 2.35:1
Frame rate                  : 25.000 FPS
Color space                 : YUV
Chroma subsampling          : 4:2:0
Bit depth                   : 8 bits
Scan type                   : Progressive
Compression mode            : Lossy
Bits/(Pixel*Frame)          : 0.179
Stream size                 : 654 MiB (88%)
Writing library             : XviD 73

Audio
ID                          : 1
Format                      : MPEG Audio
Format version              : Version 1
Format profile              : Layer 3
Codec ID                    : 55
Codec ID/Hint               : MP3
Duration                    : 1 h 33 min
Bit rate mode               : Constant
Bit rate                    : 128 kb/s
Channel(s)                  : 2 channels
Sampling rate               : 48.0 kHz
Frame rate                  : 41.667 FPS (1152 SPF)
Compression mode            : Lossy
Stream size                 : 85.4 MiB (11%)
Alignment                   : Aligned on interleaves
Interleave, duration        : 40  ms (1.00 video frame)
Interleave, preload duratio : 504  ms
Writing library             : LAME3.99r
Encoding settings           : -m s -V 4 -q 2 -lowpass 17 -b 128



Скриншоты:
[+] Всего файлов в раздаче - 1:
Na.kray.sveta.2018.WEBRip.GeneralFilm.avi746.12 MB

Показать еще раздачи по запросу край:
2019-05-07 U Край реальности 5: Великие свершения / Edge of Reality 5: Great Deeds (2019) PC 945.76 MB ↑ 68 ↓ 11
2019-02-15 U На край света (2018) WEBRip от Generalfilm | КПК 355.16 MB ↑ 42 ↓ 12
2019-02-14 U На край света (2018) WEBRip-AVC от Files-x 1.37 GB ↑ 210 ↓ 66
2019-02-14 U На край света (2018) WEBRip 720p от ExKinoRay 1.80 GB ↑ 105 ↓ 40
2019-02-14 U На край света (2018) WEBRip 1080p 3.35 GB ↑ 387 ↓ 106
2019-02-14 U На край света (2018) WEBRip 1К1.37 GB ↑ 499 ↓ 144
2019-01-18 U Край монстров 2 / Monsterland 2 (2018) HDRip | L2 1.02 GB ↑ 122 ↓ 19

Отзывы
Зарегистрируйтесь чтобы добавить комментарий.
Обратная связь
Copyleft ©