↑↓Torrent.by
Поиск
Логин: Регистрация
Пароль: Восстановить пароль
Загрузка...

Голос. Дети [06х01] (2019) HDTV 1080i от GeneralFilm

Скачать golos-deti-06h01-2019-hdtv-1080i-ot-generalfilm.torrent
U Магнитная ссылка Размер: 6.27 GB Раздают: 83 Качают: 23 Добавлен: 2019-02-16 08:51:24
Голос. Дети [06х01] (2019) HDTV 1080i от GeneralFilm

Год выпуска: 2019
Жанр:  ТВ-шоу, музыка
Выпущено: Россия, Первый канал, Красный квадрат
Ведущий: Дмитрий Нагиев, Аглая Шиловская

О фильме: C 15 февраля в шоу Голос дети новые наставники. В этот раз ими выступят Валерий Меладзе, Пелагея и Светлана Лобода. В шестом сезоне будут участвовать вокалисты, возраст которых не превышает 14 лет. В кастинге принимали участие не только российские, но и зарубежные вокалисты. В слепых прослушиваниях будет участвовать примерно 120 человек. В процессе слепых прослушиваний каждому из наставников нужно будет набрать команду из 15 человек. Во время поединков эти команды разобьют на тройки и из каждой тройки в следующий этап сможет попасть лишь один конкурсант.

Качество: HDTV (1080i)
Видео: MPEG-TS AVC, ~ 8000 Кбит/с, 1920x1080
Аудио: Русский (AC3, 2 ch, 384 Кбит/с), (MP2, 2 ch, 192 Кбит/с)
Продолжительность: 1 x ~ 01:40:00
Перевод: Не требуется
Субтитры: нет

Релиз:

Огромная благодарность ValkiriaGF за созданный постер к раздаче
[+] MediaInfo

Общее
Идентификатор                            : 1 (0x1)
Полное имя                               : D:ЗаписьGolos.Deti.6.sezon.2019.HDTV(1080i).GeneralFilmGolos.Deti.6.sezon.2019.HDTV(1080i).GeneralFilm.ts
Формат                                   : MPEG-TS
Размер файла                             : 6,27 Гбайт
Продолжительность                        : 1 ч. 39 м.
Режим общего битрейта                    : Переменный
Общий поток                              : 9009 Кбит/сек

Видео
Идентификатор                            : 1904 (0x770)
Идентификатор меню                       : 80 (0x50)
Формат                                   : AVC
Формат/Информация                        : Advanced Video Codec
Профиль формата                          : High@L4
Параметр CABAC формата                   : Да
Параметр ReFrames формата                : 3 кадра
Идентификатор кодека                     : 27
Продолжительность                        : 1 ч. 39 м.
Битрейт                                  : 7982 Кбит/сек
Ширина                                   : 1920 пикселей
Высота                                   : 1080 пикселей
Соотношение сторон                       : 16:9
Частота кадров                           : 25,000 кадров/сек
Стандарт вещания                         : Component
Цветовое пространство                    : YUV
Субдискретизация насыщенности            : 4:2:0
Битовая глубина                          : 8 бит
Тип развёртки                            : Чересстрочная
Метод сохранения типа развёртки          : Раздельные поля
Порядок развёртки                        : Верхнее поле первое
Бит/(Пиксели*Кадры)                      : 0.154
Размер потока                            : 5,55 Гбайт (89%)
Цветовой диапазон                        : Limited
Основные цвета                           : BT.709
Характеристики трансфера                 : BT.709
Коэффициенты матрицы                     : BT.709

Аудио #1
Идентификатор                            : 2904 (0xB58)
Идентификатор меню                       : 80 (0x50)
Формат                                   : AC-3
Формат/Информация                        : Audio Coding 3
Расширение режима                        : CM (complete main)
Параметр Endianness формата              : Big
Идентификатор кодека                     : 6
Продолжительность                        : 1 ч. 39 м.
Вид битрейта                             : Постоянный
Битрейт                                  : 384 Кбит/сек
Каналы                                   : 6 каналов
Расположение каналов                     : Front: L C R, Side: L R, LFE
Частота                                  : 48,0 КГц
Частота кадров                           : 31,250 кадров/сек (1536 spf)
Битовая глубина                          : 16 бит
Метод сжатия                             : С потерями
Задержка видео                           : -80 мс.
Размер потока                            : 274 Мбайт (4%)
Язык                                     : Russian

Аудио #2
Идентификатор                            : 2905 (0xB59)
Идентификатор меню                       : 80 (0x50)
Формат                                   : MPEG Audio
Версия формата                           : Version 1
Профиль формата                          : Layer 2
Идентификатор кодека                     : 3
Продолжительность                        : 1 ч. 39 м.
Вид битрейта                             : Постоянный
Битрейт                                  : 192 Кбит/сек
Каналы                                   : 2 канала
Частота                                  : 48,0 КГц
Метод сжатия                             : С потерями
Задержка видео                           : -80 мс.
Размер потока                            : 137 Мбайт (2%)
Язык                                     : Russian




Скриншоты:
[+] Всего файлов в раздаче - 1:
Golos.Deti.6.sezon.2019.HDTV(1080i).GeneralFilm.ts6.27 GB

Показать еще раздачи по запросу голос:
2019-03-16 U Голос. Дети [06х01-05] (2019) HDTVRip от GeneralFilm 6.34 GB ↑ 75 ↓ 189
2019-03-10 U Голос ангела [01-04 из 04] (2019) SATRip-AVC от Files-x 2.49 GB ↑ 48 ↓ 23
2019-03-08 U Голос. Дети [06х01-04] (2019) HDTVRip от GeneralFilm 5.17 GB ↑ 29 ↓ 92
2019-03-02 U Голос. Дети [06х01-03] (2019) HDTVRip от GeneralFilm 3.91 GB ↑ 58 ↓ 134
2019-02-23 U Голос. Дети [06х01-02] (2019) HDTVRip от GeneralFilm 1К2.65 GB ↑ 72 ↓ 90
2019-02-16 U Голос. Дети [06х01] (2019) HDTVRip от GeneralFilm 1.38 GB ↑ 232 ↓ 45
2018-12-30 U Голос. Перезагрузка [07х01-12] (2018) HDTVRip от GeneralFilm 16.54 GB ↑ 62 ↓ 185

Отзывы
Зарегистрируйтесь чтобы добавить комментарий.
Обратная связь
Copyleft ©