↑↓Torrent.by
Поиск
Логин: Регистрация
Пароль: Восстановить пароль
Загрузка...

Дело Собчака (2018) WEB-DLRip | iTunes

Скачать delo-sobchaka-2018-web-dlrip-itunes.torrent
U Магнитная ссылка Размер: 1.46 GB Раздают: 83 Качают: 14 Добавлен: 2019-02-17 08:04:48
Дело Собчака (2018) WEB-DLRip | iTunes

Название: Дело Собчака
Год выхода: 2018
Жанр: Документальный, биография
Страна: Россия
Перевод: Не требуется
Продолжительность: 01:58:36
Режиссер: Вера Кричевская
В ролях: Ксения Собчак, Людмила Нарусова, Алексей Кудрин, Александр Коржаков, Сати Спивакова, Глеб Павловский, Андрей Константинов и др.

О фильме: История первого мэра Санкт-Петербурга Анатолия Собчака, рассказанная его семьей, его соратниками и его врагами.

Файл
Формат: AVI
Качество: WEB-DLRip
Видео: Xvid 73, 720x304, ~1555 kbps, 25,000 fps
Звук: русский, AC3, 2.0 ch, 48 kHz, 192 kbps | iTunes
Субтитры: нет

Релиз:


[+] MI
General
Полное имя                               : E:TorrentDeloSobchakaWEBDLRip.avi
Формат                                   : AVI
Формат/Информация                        : Audio Video Interleave
Профиль формата                          : OpenDML
Размер файла                             : 1.46 GiB
Продолжительность                        : 1 h 58 min
Общий поток                              : 1 759 kb/s
Программа кодирования                    : XviD4PSP 6.0 / 54.27.101

Video
Идентификатор                            : 0
Формат                                   : MPEG-4 Visual
Профиль формата                          : Advanced Simple@L5
Настройки формата                        : BVOP2 / Custom Matrix
Параметр BVOP формата                    : 2
Параметр QPel формата                    : No
Параметр GMC формата                     : No warppoints
Параметр матрицы формата                 : Custom
Идентификатор кодека                     : XVID
Идентификатор кодека/Подсказка           : XviD
Продолжительность                        : 1 h 58 min
Битрейт                                  : 1 555 kb/s
Ширина                                   : 720 pixels
Высота                                   : 304 pixels
Соотношение сторон                       : 2.35:1
Частота кадров                           : 25.000 FPS
Цветовое пространство                    : YUV
Субдискретизация насыщенности            : 4:2:0
Битовая глубина                          : 8 bits
Тип развёртки                            : Progressive
Метод сжатия                             : Lossy
Бит/(Пиксели*Кадры)                      : 0.284
Размер потока                            : 1.29 GiB (88%)
Библиотека кодирования                   : XviD 73

Audio
Идентификатор                            : 1
Формат                                   : AC-3
Формат/Информация                        : Audio Coding 3
Идентификатор кодека                     : 2000
Продолжительность                        : 1 h 58 min
Вид битрейта                             : Constant
Битрейт                                  : 192 kb/s
Каналы                                   : 2 channels
Расположение каналов                     : Front: L R
Частота                                  : 48.0 kHz
Частота кадров                           : 31.250 FPS (1536 SPF)
Битовая глубина                          : 16 bits
Метод сжатия                             : Lossy
Размер потока                            : 163 MiB (11%)
Выравнивание                             : Aligned on interleaves
Продолжительность промежутка             : 32  ms (0.80 video frame)




Скриншоты:
[+] Всего файлов в раздаче - 1:
DeloSobchakaWEBDLRip.avi1.46 GB

Показать еще раздачи по запросу дело:
2019-05-04 U Дурацкое дело нехитрое / Kraftidioten (2014) BDRip от MegaPeer | iTunes 1.46 GB ↑ 67 ↓ 13
2019-03-01 U Дурацкое дело нехитрое / Kraftidioten (2014) BDRip 1080p | iTunes 6.78 GB ↑ 410 ↓ 158
2019-02-13 U Улика из прошлого. Дело цеховиков: теневая экономика (2019) SATRip 529.01 MB ↑ 65 ↓ 15
2018-11-11 U Маша и медведь: Не царское дело! [75] (2018) WEB-DLRip-AVC от ExKinoRay 152.24 MB ↑ 157 ↓ 19
2018-11-10 U Маша и медведь: Не царское дело! [75] (2018) WEB-DLRip от ExKinoRay 117.08 MB ↑ 254 ↓ 55
2018-11-10 U Маша и медведь: Не царское дело [75] (2018) WEB-DL 1080p от MediaClub 324.37 MB ↑ 374 ↓ 53
2018-10-29 U Следствие вели... с Леонидом Каневским. Звёздное дело [28.10] (2018) WEBRip от GeneralFilm 498.30 MB ↑ 66 ↓ 16

Отзывы
Зарегистрируйтесь чтобы добавить комментарий.
Обратная связь
Copyleft ©