↑↓Torrent.by
Поиск
Логин: Регистрация
Пароль: Восстановить пароль
Загрузка...

Ральф против интернета / Ralph Breaks the Internet (2018) BDRip 1080p от селезень | iTunes

Скачать ralf-protiv-interneta-ralph-breaks-the-internet-2018-bdrip-1080p-ot-selezen-itunes.torrent
U Магнитная ссылка Размер: 11.55 GB Раздают: 422 Качают: 335 Добавлен: 2019-02-17 14:23:32
Ральф против интернета / Ralph Breaks the Internet (2018) BDRip 1080p от селезень | iTunes

Название: Ральф против интернета
Оригинальное название: Ralph Breaks the Internet
Год выхода: 2018
Жанр: Мультфильм, фэнтези, комедия, приключения, семейный, полнометражный
Режиссер: Фил Джонстон, Рич Мур
В ролях: Джон С. Райлли, Сара Силверман, Галь Гадот, Тараджи П. Хенсон, Джек МакБрайер, Джейн Линч, Алан Тьюдик, Альфред Молина, Эд О`Нил, Шон Джамброун

О фильме: На этот раз Ральф и Ванилопа фон Кекс выйдут за пределы зала игровых автоматов и отправятся покорять бескрайние просторы интернета, который может и не выдержать сокрушительного обаяния громилы.

Страна: США
Студия: Walt Disney Animation Studios, Walt Disney Pictures
Продолжительность: 01:52:31
Перевод: Дублированный | iTunes

Качество: BDRip 1080p
Видео: MPEG-4 AVC, 1980x804, 12.8 Mbit/s, 23.976 fps
Звук:
Аудио #01: 48 kHz, AC3, 5.1, 384 Kbps | iTunes | RUS |
Аудио #02: 48 kHz, DTS, 5.1, 1510 Kbps | Оригинал |  ENG |
Субтитры: Русские (Forced, full), английские

Релиз:


[+] MI
General
Unique ID                   : 182779437000410394707279817984279764491 (0x89820A020C0100691AD193EA682EDE0B)
Complete name               : D:Video111Ralph.Breaks.The.Internet.BDRip.1080p.seleZen.mkv
Format                      : Matroska
Format version              : Version 4
File size                   : 11.6 GiB
Duration                    : 1 h 52 min
Overall bit rate            : 14.7 Mb/s
Movie name                  : Ralph Breaks The Internet 2018 from селезень
Encoded date                : UTC 2019-02-17 04:41:38
Writing application         : mkvmerge v29.0.0 ('Like It Or Not') 64-bit
Writing library             : libebml v1.3.6 + libmatroska v1.4.9

Video
ID                          : 1
Format                      : AVC
Format/Info                 : Advanced Video Codec
Format profile              : High@L4.1
Format settings             : CABAC / 5 Ref Frames
Format settings, CABAC      : Yes
Format settings, ReFrames   : 5 frames
Codec ID                    : V_MPEG4/ISO/AVC
Duration                    : 1 h 52 min
Bit rate                    : 12.8 Mb/s
Width                       : 1 920 pixels
Height                      : 804 pixels
Display aspect ratio        : 2.40:1
Frame rate mode             : Constant
Frame rate                  : 23.976 (24000/1001) FPS
Color space                 : YUV
Chroma subsampling          : 4:2:0
Bit depth                   : 8 bits
Scan type                   : Progressive
Bits/(Pixel*Frame)          : 0.346
Stream size                 : 10.1 GiB (87%)
Title                       : HDC
Writing library             : x264 core 148 r2665kMod a01e339
Encoding settings           : cabac=1 / ref=5 / deblock=1:-1:-1 / analyse=0x3:0x133 / me=umh / subme=11 / psy=1 / fade_compensate=0.00 / psy_rd=0.70:0.00 / mixed_ref=1 / me_range=48 / chroma_me=1 / trellis=2 / 8x8dct=1 / cqm=0 / deadzone=21,11 / fast_pskip=0 / chroma_qp_offset=-2 / threads=24 / lookahead_threads=4 / sliced_threads=0 / nr=0 / decimate=0 / interlaced=0 / bluray_compat=0 / constrained_intra=0 / fgo=0 / bframes=8 / b_pyramid=2 / b_adapt=2 / b_bias=0 / direct=3 / weightb=1 / open_gop=0 / weightp=2 / keyint=240 / keyint_min=24 / scenecut=40 / intra_refresh=0 / rc=2pass / mbtree=0 / bitrate=12800 / ratetol=1.0 / qcomp=0.70 / qpmin=0 / qpmax=69 / qpstep=4 / cplxblur=20.0 / qblur=0.5 / ip_ratio=1.10 / pb_ratio=1.20 / aq=3:1.10
Language                    : English
Default                     : Yes
Forced                      : No

Audio #1
ID                          : 2
Format                      : AC-3
Format/Info                 : Audio Coding 3
Commercial name             : Dolby Digital
Codec ID                    : A_AC3
Duration                    : 1 h 52 min
Bit rate mode               : Constant
Bit rate                    : 384 kb/s
Channel(s)                  : 6 channels
Channel layout              : L R C LFE Ls Rs
Sampling rate               : 48.0 kHz
Frame rate                  : 31.250 FPS (1536 SPF)
Bit depth                   : 16 bits
Compression mode            : Lossy
Stream size                 : 309 MiB (3%)
Title                       : iTunes
Language                    : Russian
Service kind                : Complete Main
Default                     : Yes
Forced                      : Yes

Audio #2
ID                          : 3
Format                      : DTS
Format/Info                 : Digital Theater Systems
Codec ID                    : A_DTS
Duration                    : 1 h 52 min
Bit rate mode               : Constant
Bit rate                    : 1 509 kb/s
Channel(s)                  : 6 channels
Channel layout              : C L R Ls Rs LFE
Sampling rate               : 48.0 kHz
Frame rate                  : 93.750 FPS (512 SPF)
Bit depth                   : 24 bits
Compression mode            : Lossy
Stream size                 : 1.19 GiB (10%)
Title                       : Original
Language                    : English
Default                     : No
Forced                      : No

Text #1
ID                          : 4
Format                      : UTF-8
Codec ID                    : S_TEXT/UTF8
Codec ID/Info               : UTF-8 Plain Text
Duration                    : 1 h 41 min
Bit rate                    : 2 b/s
Count of elements           : 46
Stream size                 : 1.56 KiB (0%)
Title                       : Forced
Language                    : Russian
Default                     : Yes
Forced                      : Yes

Text #2
ID                          : 5
Format                      : UTF-8
Codec ID                    : S_TEXT/UTF8
Codec ID/Info               : UTF-8 Plain Text
Duration                    : 1 h 51 min
Bit rate                    : 122 b/s
Count of elements           : 1877
Stream size                 : 101 KiB (0%)
Title                       : Full
Language                    : Russian
Default                     : No
Forced                      : No

Text #3
ID                          : 6
Format                      : UTF-8
Codec ID                    : S_TEXT/UTF8
Codec ID/Info               : UTF-8 Plain Text
Duration                    : 1 h 51 min
Bit rate                    : 77 b/s
Count of elements           : 1886
Stream size                 : 63.1 KiB (0%)
Title                       : Full
Language                    : English
Default                     : No
Forced                      : No

Text #4
ID                          : 7
Format                      : UTF-8
Codec ID                    : S_TEXT/UTF8
Codec ID/Info               : UTF-8 Plain Text
Duration                    : 1 h 51 min
Bit rate                    : 90 b/s
Count of elements           : 2473
Stream size                 : 73.8 KiB (0%)
Title                       : SDH
Language                    : English
Default                     : No
Forced                      : No

Menu
00:00:00.000                : en:00:00:00.000
00:04:09.666                : en:00:04:09.666
00:11:07.417                : en:00:11:07.417
00:17:28.923                : en:00:17:28.923
00:23:43.881                : en:00:23:43.881
00:27:54.589                : en:00:27:54.589
00:34:18.807                : en:00:34:18.807
00:41:39.956                : en:00:41:39.956
00:51:27.709                : en:00:51:27.709
00:58:04.606                : en:00:58:04.606
01:01:50.957                : en:01:01:50.957
01:06:17.306                : en:01:06:17.306
01:12:31.806                : en:01:12:31.806
01:19:10.120                : en:01:19:10.120
01:27:24.030                : en:01:27:24.030
01:38:26.775                : en:01:38:26.775



Скриншоты:
[+] Всего файлов в раздаче - 1:
Ralph.Breaks.The.Internet.BDRip.1080p.seleZen.mkv11.55 GB

Показать еще раздачи по запросу ральф:
2019-02-23 U Ральф против интернета / Ralph Breaks the Internet (2018) BDRip 720p от Scarabey | iTunes 4.12 GB ↑ 92 ↓ 28
2019-02-23 U Ральф против интернета / Ralph Breaks the Internet (2018) UHD BDRemux 2160p от селезень | 4K | HDR | iTunes 42.01 GB ↑ 51 ↓ 35
2019-02-23 U Ральф против интернета / Ralph Breaks the Internet (2018) BDRip-HEVC 1080p от Donatik | iTunes 3.85 GB ↑ 57 ↓ 15
2019-02-21 U Ральф против интернета / Ralph Breaks the Internet (2018) BDRip-AVC от HELLYWOOD | iTunes 1.41 GB ↑ 48 ↓ 17
2019-02-20 U Ральф против интернета / Ralph Breaks the Internet (2018) BDRip 1080p от qqss44 & MegaPeer | iTunes 5.50 GB ↑ 45 ↓ 57
2019-02-20 U Ральф против интернета / Ralph Breaks the Internet (2018) BDRemux 1080p от селезень | iTunes 22.77 GB ↑ 47 ↓ 21
2019-02-19 U Ральф против интернета / Ralph Breaks the Internet (2018) BDRip от MegaPeer | iTunes 1.41 GB ↑ 2910 ↓ 140

Отзывы
Зарегистрируйтесь чтобы добавить комментарий.
Обратная связь
Copyleft ©