↑↓Torrent.by
Поиск
Логин: Регистрация
Пароль: Восстановить пароль
Загрузка...

Холодное сердце 2 / Frozen II (2019) WEBRip 1080p | Тизер

Скачать holodnoe-serdce-2-frozen-ii-2019-webrip-1080p-tizer.torrent
U Магнитная ссылка Размер: 597.76 MB Раздают: 121 Качают: 15 Добавлен: 2019-02-17 14:24:19
Холодное сердце 2 / Frozen II (2019) WEBRip 1080p | Тизер

Год выпуска: 2019
Производство: США / Walt Disney Pictures, Walt Disney Animation Studios
Жанр:  Мультфильм, мюзикл, фэнтези, комедия, приключения, семейный

Режиссер: Крис Бак, Дженнифер Ли
Продюсеры: Питер Дель Вечо, Дженнифер Ли
Актеры: Кристен Белл, Эван Рэйчел Вуд, Джонатан Грофф, Идина Мензел, Стерлинг К. Браун, Джош Гад

Описание:
Анна, Эльза, Кристоф, его верный олень Свен и никогда не унывающий снеговик Олаф должны будут покинуть уютное королевство Эренделл и отправиться ещё дальше на север, в путешествие, которое приведет их к истокам древних легенд и поможет раскрыть тайны, касающиеся прошлого их родной страны.

Перевод: Дублированный
Субтитры: Нет
Дата мировой премьеры: 20 ноября 2019
Дата российской премьеры: 28 ноября 2019, «WDSSPR»

 
Продолжительность: 00:02:06
Качество видео: WEBRip 1080pВидео: H264, 1920x804 (2,40:1), 32,7 Мбит/сек
Аудио 1: MP3 2.0, 128 Кбит/сек [Русский - дублированный]
Аудио 2: PCM 5.1, 6912 Кбит/сек [Английский - оригинал]


[+] MediaInfo:
Общее
Уникальный идентификатор                 : 49093391145278674899566356154021534214 (0x24EF0B0FAAF0FFC9A4F347CAD43B5A06)
Полное имя                               : V:TorrentsFrozen 2 (2019) HDRip [1080p] Teaser.mkv
Формат                                   : Matroska
Версия формата                           : Version 4 / Version 2
Размер файла                             : 598 Мбайт
Продолжительность                        : 2 м. 6 с.
Общий поток                              : 39,7 Мбит/сек
Дата кодирования                         : UTC 2019-02-14 16:40:07
Программа кодирования                    : mkvmerge v31.0.0 ('Dolores In A Shoestand') 64-bit
Библиотека кодирования                   : libebml v1.3.6 + libmatroska v1.4.9

Видео
Идентификатор                            : 1
Формат                                   : AVC
Формат/Информация                        : Advanced Video Codec
Профиль формата                          : High@L4.1
Настройки формата                        : CABAC / 4 Ref Frames
Параметр CABAC формата                   : Да
Параметр RefFrames формата               : 4 кадра
Идентификатор кодека                     : V_MPEG4/ISO/AVC
Продолжительность                        : 2 м. 6 с.
Битрейт                                  : 32,7 Мбит/сек
Ширина                                   : 1920 пикселей
Высота                                   : 804 пикселя
Соотношение сторон                       : 2,40:1
Режим частоты кадров                     : Постоянный
Частота кадров                           : 23,976 (24000/1001) кадра/сек
Цветовое пространство                    : YUV
Субдискретизация насыщенности            : 4:2:0
Битовая глубина                          : 8 бит
Тип развёртки                            : Прогрессивная
Бит/(Пиксели*Кадры)                      : 0.884
Размер потока                            : 492 Мбайт (82%)
Default                                  : Да
Forced                                   : Нет
Цветовой диапазон                        : Limited
Основные цвета                           : BT.709
Характеристики трансфера                 : BT.709
Коэффициенты матрицы                     : BT.709

Аудио #1
Идентификатор                            : 2
Формат                                   : MPEG Audio
Версия формата                           : Version 1
Профиль формата                          : Layer 3
Настройки формата                        : Joint stereo
Режим                                    : Joint stereo
Идентификатор кодека                     : A_MPEG/L3
Идентификатор кодека/Подсказка           : MP3
Продолжительность                        : 2 м. 6 с.
Вид битрейта                             : Постоянный
Битрейт                                  : 128 Кбит/сек
Каналы                                   : 2 канала
Частота                                  : 48,0 КГц
Частота кадров                           : 41,667 кадра/сек (1152 SPF)
Метод сжатия                             : С потерями
Размер потока                            : 1,93 Мбайт (0%)
Язык                                     : Russian
Default                                  : Да
Forced                                   : Нет

Аудио #2
Идентификатор                            : 3
Формат                                   : PCM
Идентификатор кодека                     : A_PCM/INT/LIT
Продолжительность                        : 2 м. 6 с.
Вид битрейта                             : Постоянный
Битрейт                                  : 6912 Кбит/сек
Каналы                                   : 6 каналов
Частота                                  : 48,0 КГц
Частота кадров                           : 32,007 кадра/сек (1500 SPF)
Битовая глубина                          : 24 бит
Задержка видео                           : 17 мс.
Размер потока                            : 104 Мбайт (17%)
Язык                                     : English
Default                                  : Нет
Forced                                   : Нет




Скриншоты:
[+] Всего файлов в раздаче - 1:
Frozen 2 (2019) HDRip [1080p] Teaser.mkv597.76 MB

Показать еще раздачи по запросу холодное:
2018-12-03 U Загадки века. Холодное лето 53-го: кровавая амнистия (2018) SATRip 538.36 MB ↑ 152 ↓ 43
2018-11-22 U Олаф и холодное приключение и 6 зимних историй / Olaf's Frozen Adventure - Includes 6 Disney Tales (2017) BDRip от MegaPeer | iTunes 1К1.09 GB ↑ 176 ↓ 17
2018-08-06 U Холодное сердце / Право на ошибку [01-04 из 04] (2016) WEB-DLRip-AVC от Files-x 2.27 GB ↑ 38 ↓ 10
2017-12-31 U Олаф и холодное приключение и 6 зимних историй / Olaf's Frozen Adventure - Includes 6 Disney Ta (2017) WEB-DLRip-AVC от Kaztorrents | iTunes 1.46 GB ↑ 106 ↓ 24
2017-12-27 U Олаф и холодное приключение и 6 зимних историй / Olaf's Frozen Adventure - Includes 6 Disney Tales (2017) WEB-DLRip от MegaPeer | iTunes 1.09 GB ↑ 819 ↓ 106
2017-12-27 U Олаф и холодное приключение и 6 зимних историй / Olaf's Frozen Adventure - Includes 6 Disney Tales (2017) WEB-DL 1080p | iTunes 2.87 GB ↑ 860 ↓ 273
2017-12-26 U Олаф и холодное приключение / Olaf's Frozen Adventure (2017) WEB-DLRip от ExKinoRay | iTunes 401.68 MB ↑ 110 ↓ 18

Отзывы
Зарегистрируйтесь чтобы добавить комментарий.
Обратная связь
Copyleft ©