↑↓Torrent.by
Поиск
Логин: Регистрация
Пароль: Восстановить пароль
Загрузка...

Моя жизнь (2018) WEB-DL 1080p | iTunes

Скачать moya-zhizn-2018-web-dl-1080p-itunes.torrent
U Магнитная ссылка Размер: 3.47 GB Раздают: 114 Качают: 27 Добавлен: 2019-02-17 14:24:24
Моя жизнь (2018) WEB-DL 1080p | iTunes

Название: Моя жизнь
Год выпуска: 2018
Жанр:  Мелодрама
Режиссёр: Алексей Луканев
В ролях: Алёна Бабенко, Павел Трубинер, Макар Запорожский, Анастасия Панина, Дмитрий Белоцерковский, Николай Чиндяйкин, Арсений Бурдонов, Диана Енакаева, Михаил Калинин, Егор Леонтьев

О фильме: С самого детства главный герой влюбляется в футбол и мечтает стать великим футболистом, чтобы сыграть свой важнейший матч. Следуя своей мечте, ему приходится отказаться от любимой девушки и выбрать путь футболиста. И вот, когда остается один шаг до заветной мечты, судьба распоряжается по-другому. Мир перестает существовать, ведь он не только теряет возможность осуществить свою мечту, но и теряет своих родных, любимых людей.Как не сломаться, следовать своей мечте и вернуть свою любимую? Или она так и не смирится с его выбором стать футболистом?

Страна: Россия
Студия: Киностудия «Медведь»
Продолжительность: 01:34:45
Перевод: Не требуется

Файл
Качество: WEB-DL 1080p
Контейнер: MKV
Видео: MPEG4 AVC Video, H264, 1920x804, 25 fps, 4859 kbps
Аудио: Russian: AC3, 6 ch, 384 kbps, 16 bits, 48.0 KHz
Субтитры: Нет


[+] MediaInfo
General
Unique ID : 255378814703637816859187449441507646415 (0xC0202BAF0FE547B3833D56E49DF49BCF)
Complete name : D:Моя жизнь 2018 WEB-DL 1080p.mkv
Format : Matroska
Format version : Version 4 / Version 2
File size : 3.47 GiB
Duration : 1 h 34 min
Overall bit rate : 5 244 kb/s
Encoded date : UTC 2018-07-06 13:13:36
Writing application : mkvmerge v24.0.0 ('Beyond The Pale') 64-bit
Writing library : libebml v1.3.6 + libmatroska v1.4.9

Video
ID : 1
Format : AVC
Format/Info : Advanced Video Codec
Format profile : High@L4
Format settings : CABAC / 5 Ref Frames
Format settings, CABAC : Yes
Format settings, ReFrames : 5 frames
Codec ID : V_MPEG4/ISO/AVC
Duration : 1 h 34 min
Bit rate : 4 859 kb/s
Width : 1 920 pixels
Height : 804 pixels
Display aspect ratio : 2.40:1
Frame rate mode : Constant
Frame rate : 25.000 FPS
Color space : YUV
Chroma subsampling : 4:2:0
Bit depth : 8 bits
Scan type : Progressive
Bits/(Pixel*Frame) : 0.126
Stream size : 3.22 GiB (93%)
Language : English
Default : Yes
Forced : No
Color range : Limited
Color primaries : BT.709
Transfer characteristics : BT.709
Matrix coefficients : BT.709

Audio
ID : 2
Format : AC-3
Format/Info : Audio Coding 3
Codec ID : A_AC3
Duration : 1 h 34 min
Bit rate mode : Constant
Bit rate : 384 kb/s
Channel(s) : 6 channels
Channel positions : Front: L C R, Side: L R, LFE
Sampling rate : 48.0 kHz
Frame rate : 31.250 FPS (1536 SPF)
Bit depth : 16 bits
Compression mode : Lossy
Stream size : 260 MiB (7%)
Language : Russian
Service kind : Complete Main
Default : Yes
Forced : No

Menu
00:00:00.000 : en:Глава 1
00:06:21.240 : en:Глава 2
00:10:57.360 : en:Глава 3
00:17:57.200 : en:Глава 4
00:25:08.760 : en:Глава 5
00:31:35.880 : en:Глава 6
00:35:57.839 : en:Глава 7
00:40:01.399 : en:Глава 8
00:45:14.879 : en:Глава 9
00:49:18.519 : en:Глава 10
00:54:22.319 : en:Глава 11
01:00:09.159 : en:Глава 12
01:06:02.679 : en:Глава 13
01:13:24.279 : en:Глава 14
01:18:38.039 : en:Глава 15
01:23:11.399 : en:Глава 16



Скриншоты:
[+] Всего файлов в раздаче - 1:
Моя жизнь 2018 WEB-DL 1080p.mkv3.47 GB

Показать еще раздачи по запросу жизнь:
2019-03-16 U Дикая жизнь / Wildlife (2018) BDRip 1080p от селезень | iTunes 8.08 GB ↑ 59 ↓ 14
2019-03-15 U Отдать жизнь за любовника / An Affair to Die For (2018) WEB-DL 1080p от ExKinoRay | HDRezka Studio 2.99 GB ↑ 65 ↓ 44
2019-03-15 U Отдать жизнь за любовника / An Affair to Die For (2018) WEB-DLRip от ExKinoRay | HDRezka Studio 1.33 GB ↑ 75 ↓ 33
2019-03-15 U Дикая жизнь / Wildlife (2018) BDRip от MegaPeer | iTunes 1.41 GB ↑ 48 ↓ 8
2019-03-12 U Акушерка. Новая жизнь [S02] (2019) HDTVRip от Files-x 5.17 GB ↑ 49 ↓ 29
2019-03-07 U Акушерка. Новая жизнь [02х01-08 из 08] (2019) SATRip-AVC 5.16 GB ↑ 1 ↓ 4
2019-02-20 U Сама жизнь / Life Itself (2018) BDRip от MegaPeer | iTunes 1.46 GB ↑ 99 ↓ 25

Отзывы
Зарегистрируйтесь чтобы добавить комментарий.
Обратная связь
Copyleft ©