↑↓Torrent.by
Поиск
Логин: Регистрация
Пароль: Восстановить пароль
Загрузка...

Т-34 (2018) WEBRip от GeneralFilm

Скачать t-34-2018-webrip-ot-generalfilm.torrent
U Магнитная ссылка Размер: 1.46 GB Раздают: 60 Качают: 48 Добавлен: 2019-02-18 19:31:14
Т-34 (2018) WEBRip от GeneralFilm

Оригинальное название: Т-34
Год выпуска: 2018
Жанр:  драма, военный, приключения
Выпущено: Россия, АМЕДИА, Марс Медиа Энтертейнмент
Режиссер: Алексей Сидоров
В ролях: Александр Петров, Виктор Добронравов, Ирина Старшенбаум, Винценц Кифер, Петр Скворцов, Семен Трескунов, Артем Быстров, Антон Богданов, Василий Уриевский, Василий Буткевич

О фильме: Во времена величайших испытаний человечества, когда от каждого действия зависят жизни любимых, два заклятых врага начнут свое противостояние.
Оказавшись в плену, вчерашний курсант Ивушкин планирует дерзкий побег. Он собирает свой экипаж и на легендарной «тридцатьчетверке» бросает вызов немецким танковым асам во главе с Ягером. Ради своей любви и Родины он готов идти до конца.

Качество: WEBRip
Видео: XviD build 73, 720x304 (2.37:1), 24.000 fps, 1362 Kbps (0.259 bit/pixel)
Аудио: 48.0 kHz, MP3, 2/0 ch, 128 kbps
Продолжительность: 02:19:07
Перевод: Не требуется
Cубтитры: нет

Релиз:


[+] MediaInfo

General
Complete name               : D:RazdachiT.34.2018.WEBRip.GeneralFilm.avi
Format                      : AVI
Format/Info                 : Audio Video Interleave
File size                   : 1.46 GiB
Duration                    : 2 h 19 min
Overall bit rate            : 1 499 kb/s
Writing application         : VirtualDubMod 1.5.10.3 | www.virtualdub-fr.org || (build 2550/release)
Writing library             : VirtualDubMod build 2550/release

Video
ID                          : 0
Format                      : MPEG-4 Visual
Format profile              : Advanced Simple@L5
Format settings             : BVOP1 / Custom Matrix
Format settings, BVOP       : 1
Format settings, QPel       : No
Format settings, GMC        : No warppoints
Format settings, Matrix     : Custom
Codec ID                    : XVID
Codec ID/Hint               : XviD
Duration                    : 2 h 19 min
Bit rate                    : 1 362 kb/s
Width                       : 720 pixels
Height                      : 304 pixels
Display aspect ratio        : 2.35:1
Frame rate                  : 24.000 FPS
Color space                 : YUV
Chroma subsampling          : 4:2:0
Bit depth                   : 8 bits
Scan type                   : Progressive
Compression mode            : Lossy
Bits/(Pixel*Frame)          : 0.259
Stream size                 : 1.32 GiB (91%)
Writing library             : XviD 73

Audio
ID                          : 1
Format                      : MPEG Audio
Format version              : Version 1
Format profile              : Layer 3
Codec ID                    : 55
Codec ID/Hint               : MP3
Duration                    : 2 h 19 min
Bit rate mode               : Constant
Bit rate                    : 128 kb/s
Channel(s)                  : 2 channels
Sampling rate               : 48.0 kHz
Frame rate                  : 41.667 FPS (1152 SPF)
Compression mode            : Lossy
Stream size                 : 127 MiB (9%)
Alignment                   : Aligned on interleaves
Interleave, duration        : 42  ms (1.00 video frame)
Interleave, preload duratio : 504  ms
Writing library             : LAME3.99r
Encoding settings           : -m s -V 4 -q 2 -lowpass 17 -b 128



Скриншоты:
[+] Всего файлов в раздаче - 1:
T.34.2018.WEBRip.GeneralFilm.avi1.46 GB

Показать еще раздачи по запросу webrip:
Вчера U Зоя [01-08 из 08] (2019) WEBRip-AVC от Files-x 4.74 GB ↑ 72 ↓ 77
Вчера U Мертвое озеро [01-03 из 08] (2018) WEBRip от GeneralFilm 1.63 GB ↑ 88 ↓ 51
Вчера U Зоя [01-08 из 08] (2019) WEBRip от Files-x 4.80 GB ↑ 91 ↓ 79
Вчера U Реализация [01-20 из 24] (2018) WEBRip от GeneralFilm 10.88 GB ↑ 100 ↓ 321
Вчера U Адаптация [02x01-09] (2018) WEBRip 720p от ExKinoRay 4.06 GB ↑ 142 ↓ 187
Вчера U Пригласи дьявола в свой дом / Пока Дьявол не позовёт / Sebelum Iblis Menjemput (2018) WEBRip | Baibako 1.29 GB ↑ 146 ↓ 21
Вчера U Адаптация [02x01-09] (2018) WEBRip 2.64 GB ↑ 153 ↓ 257

Отзывы
Зарегистрируйтесь чтобы добавить комментарий.
Обратная связь
Copyleft ©