↑↓Torrent.by
Поиск
Логин: Регистрация
Пароль: Восстановить пароль
Загрузка...

Мой лучший друг (2017) WEB-DLRip-AVC

Скачать moy-luchshiy-drug-2017-web-dlrip-avc.torrent
U Магнитная ссылка Размер: 2.18 GB Раздают: 124 Качают: 16 Добавлен: 2019-02-19 08:31:43
Мой лучший друг (2017) WEB-DLRip-AVC

Название: Мой лучший друг
Жанр:  Драма, история
Год выпуска: 2017
Режиссёр: Элина Суни
В ролях: Маргарита Кутовая, Юрий Поляк, Владимир Ильин, Антон Капанин, Людмила Дмитриева, Кира Тё, Денис Варенов, Дмитрий Файнштейн, Анастасия Пронина

О фильме: Лучший студент курса Андрей Артамонов неожиданно проваливает защиту курсовой. В шестидесятые годы разработки студентов часто внедрялись в производство, и идея Артамонова вполне могла бы стать открытием в газовой промышленности. Однако самолюбие не позволяет ему признать очевидные ошибки, он выбрасывает чертежи и забывает о своей работе. Но через несколько лет судьба заставит его не только вспомнить о выброшенных чертежах, но и сделать сложнейший выбор - либо карьера в Москве, либо три пожелтевших листа бумаги.

Выпущено: Россия, "Арс Видере"
Продолжительность: 02:24:29
Перевод: Не требуется

Файл
Качество: WEB-DLRip-AVC
Формат: MKV
Видео: MPEG-4 AVC, 1072x450, 25.000 fps, 1776 Kbps
Аудио: Русский: AC3, 16 bits, 48 Khz, 5.1 ch, 384 Kbps
Субтитры: Нет


[+] Доп. инфо
* Мат запикан.

** Титры на казахскую речь вшиты в видеоряд (хардсаб).




[+] MediaInfo
General
Unique ID : 230476969586472930603865617560695793545 (0xAD643FEDC4F03550899908C40268E789)
Complete name : Мой лучший друг.mkv
Format : Matroska
Format version : Version 2
File size : 2.18 GiB
Duration : 2 h 24 min
Overall bit rate : 2 161 kb/s
Encoded date : UTC 2018-07-19 12:59:09
Writing application : mkvmerge v7.8.0 ('River Man') 32bit built on Mar 27 2015 16:18:02
Writing library : libebml v1.3.1 + libmatroska v1.4.2

Video
ID : 1
Format : AVC
Format/Info : Advanced Video Codec
Format profile : High@L4.1
Format settings, CABAC : Yes
Format settings, ReFrames : 16 frames
Codec ID : V_MPEG4/ISO/AVC
Duration : 2 h 24 min
Bit rate : 1 776 kb/s
Width : 1 072 pixels
Height : 450 pixels
Display aspect ratio : 2.40:1
Frame rate mode : Constant
Frame rate : 25.000 FPS
Color space : YUV
Chroma subsampling : 4:2:0
Bit depth : 8 bits
Scan type : Progressive
Bits/(Pixel*Frame) : 0.147
Stream size : 1.75 GiB (80%)
Title : Мой лучший друг.2017
Writing library : x264 core 155 r2867+82 a249126 t_mod_Custom_2 [8-bit@all X86]
Encoding settings : cabac=1 / ref=16 / deblock=1:-2:-2 / analyse=0x3:0x113 / me=umh / subme=11 / psy=1 / fade_compensate=0.00 / psy_rd=1.00:0.00 / mixed_ref=1 / me_range=32 / chroma_me=1 / trellis=2 / 8x8dct=1 / cqm=0 / deadzone=21,11 / fast_pskip=0 / chroma_qp_offset=-2 / threads=12 / lookahead_threads=3 / sliced_threads=0 / nr=0 / decimate=0 / interlaced=0 / bluray_compat=0 / constrained_intra=0 / fgo=0 / bframes=11 / b_pyramid=2 / b_adapt=2 / b_bias=0 / direct=3 / weightb=1 / open_gop=0 / weightp=2 / keyint=250 / keyint_min=25 / scenecut=40 / intra_refresh=0 / rc_lookahead=60 / rc=2pass / mbtree=0 / bitrate=1776 / ratetol=1.0 / qcomp=0.65 / qpmin=0:0:0 / qpmax=69:69:69 / qpstep=4 / cplxblur=20.0 / qblur=0.5 / vbv_maxrate=62500 / vbv_bufsize=78125 / nal_hrd=none / filler=0 / ip_ratio=1.35 / pb_ratio=1.30 / aq=3:0.90 / aq-sensitivity=10.00 / aq-factor=1.00:1.00:1.00 / aq2=0 / aq3=0
Language : Russian
Default : Yes
Forced : No
Color range : Limited
Color primaries : BT.709
Transfer characteristics : BT.709
Matrix coefficients : BT.709

Audio
ID : 2
Format : AC-3
Format/Info : Audio Coding 3
Mode extension : CM
Format settings, Endianness : Big
Codec ID : A_AC3
Duration : 2 h 24 min
Bit rate mode : Constant
Bit rate : 384 kb/s
Channel(s) : 6 channels
Channel positions : Front: L C R, Side: L R, LFE
Sampling rate : 48.0 kHz
Frame rate : 31.250 FPS (1536 spf)
Compression mode : Lossy
Stream size : 397 MiB (18%)
Title : AC-3; 16 bits 48 Khz; 5.1ch 384 Kbps; CBR
Language : Russian
Default : Yes
Forced : No



Скриншоты:
[+] Всего файлов в раздаче - 1:
Мой лучший друг.mkv2.18 GB

Показать еще раздачи по запросу лучший:
2019-02-02 U Самый лучший муж [01-08 из 08] (2018) WEBRip от Files-x 4.68 GB ↑ 82 ↓ 79
2019-02-02 U Самый лучший муж [01-08 из 08] (2018) WEBRip-AVC от Files-x 4.50 GB ↑ 129 ↓ 40
2019-01-31 U Самый лучший муж [01-06 из 08] (2018) WEBRip от Files-x 3.51 GB ↑ 60 ↓ 90
2018-10-21 U Мой лучший друг (2017) WEB-DLRip от MegaPeer 1К1.46 GB ↑ 96 ↓ 18
2017-10-21 U Adguard Premium 6.2.431.2165 RC [2017.Ml\Rus] - Самый лучший способ убрать рекламу! 52.80 MB ↑ 227 ↓ 8
2017-10-06 U Adguard Premium 6.2.424.2123 Beta [2017.Ml\Rus] - Самый лучший способ убрать рекламу! 53.14 MB ↑ 115 ↓ 22
2017-09-25 U Мой лучший враг [01-04 из 04] (2017) WEB-DLRip от GeneralFilm 1.47 GB ↑ 75 ↓ 34

Отзывы
Зарегистрируйтесь чтобы добавить комментарий.
Обратная связь
Copyleft ©