↑↓Torrent.by
Поиск
Логин: Регистрация
Пароль: Восстановить пароль
Загрузка...

Ральф против интернета / Ralph Breaks the Internet (2018) BDRip 1080p от qqss44 & MegaPeer | iTunes

Скачать ralf-protiv-interneta-ralph-breaks-the-internet-2018-bdrip-1080p-ot-qqss44-megapeer-itunes.torrent
U Магнитная ссылка Размер: 5.50 GB Раздают: 54 Качают: 57 Добавлен: 2019-02-20 15:23:32
Ральф против интернета / Ralph Breaks the Internet (2018) BDRip 1080p от qqss44 & MegaPeer | iTunes

Информация о фильме
Название: Ральф против интернета
Оригинальное название: Ralph Breaks the Internet
Год выпуска: 2018
Жанр: Мультфильм, фэнтези, комедия, приключения, семейный, полнометражный
Режиссер: Фил Джонстон, Рич Мур
В ролях: Джон С. Райлли, Сара Силверман, Галь Гадот, Тараджи П. Хенсон, Джек МакБрайер, Джейн Линч, Алан Тьюдик, Альфред Молина, Эд О`Нил, Шон Джамброун

О фильме:
На этот раз Ральф и Ванилопа фон Кекс выйдут за пределы зала игровых автоматов и отправятся покорять бескрайние просторы интернета, который может и не выдержать сокрушительного обаяния громилы.

Страна: США
Студия: Walt Disney Animation Studios, Walt Disney Pictures
Продолжительность: 01:52:31
Перевод: Дублированный | iTunes

Файл
Формат: MKV, BDRip 1080p
Видео: MPEG-4 AVC, 6616 Кбит/с, 1920x804
Aудио#1: [RUS] AC3 | 48 KHz | 5.1 (Front: L С R Side: L R) + LFE | ~384 kbps
Субтитры: русские форсированные  + полные
Релиз от:


[+] МИ

Общее
Уникальный идентификатор                 : 225449584550467779850243964090101264485 (0xA99C02B59A598AE5B3BEB5FD7E57F065)
Полное имя                               : H:Ralph.Breaks.the.Internet.(2018).BDRip-1080p.MegaPeer.(qqss44).mkv
Формат                                   : Matroska
Версия формата                           : Version 2
Размер файла                             : 5,50 Гбайт
Продолжительность                        : 1 ч. 52 м.
Общий поток                              : 7001 Кбит/сек
Название фильма                          : Ralph.Breaks.the.Internet.(2018).BDRip-1080p.MegaPeer.(qqss44)
Дата кодирования                         : UTC 2019-02-20 09:35:59
Программа кодирования                    : mkvmerge v7.8.0 ('River Man') 32bit built on Apr  3 2015 12:11:22
Библиотека кодирования                   : libebml v1.3.1 + libmatroska v1.4.2

Видео
Идентификатор                            : 1
Формат                                   : AVC
Формат/Информация                        : Advanced Video Codec
Профиль формата                          : High@L4.1
Параметр CABAC формата                   : Да
Параметр ReFrames формата                : 5 кадров
Идентификатор кодека                     : V_MPEG4/ISO/AVC
Продолжительность                        : 1 ч. 52 м.
Битрейт                                  : 6616 Кбит/сек
Ширина                                   : 1920 пикселей
Высота                                   : 804 пикселя
Соотношение сторон                       : 2,40:1
Режим частоты кадров                     : Постоянный
Частота кадров                           : 23,976 (24000/1001) кадра/сек
Цветовое пространство                    : YUV
Субдискретизация насыщенности            : 4:2:0
Битовая глубина                          : 8 бит
Тип развёртки                            : Прогрессивная
Бит/(Пиксели*Кадры)                      : 0.179
Размер потока                            : 5,09 Гбайт (93%)
Библиотека кодирования                   : x264 core 152 r2851 ba24899
Настройки программы                      : cabac=1 / ref=5 / deblock=1:-3:-3 / analyse=0x3:0x113 / me=umh / subme=11 / psy=1 / psy_rd=1.00:0.00 / mixed_ref=1 / me_range=32 / chroma_me=1 / trellis=2 / 8x8dct=1 / cqm=0 / deadzone=21,11 / fast_pskip=0 / chroma_qp_offset=-2 / threads=12 / lookahead_threads=2 / sliced_threads=0 / nr=0 / decimate=0 / interlaced=0 / bluray_compat=0 / constrained_intra=0 / bframes=8 / b_pyramid=2 / b_adapt=2 / b_bias=0 / direct=3 / weightb=1 / open_gop=0 / weightp=2 / keyint=250 / keyint_min=23 / scenecut=40 / intra_refresh=0 / rc_lookahead=40 / rc=2pass / mbtree=0 / bitrate=6616 / ratetol=1.0 / qcomp=0.70 / qpmin=0 / qpmax=69 / qpstep=4 / cplxblur=20.0 / qblur=0.5 / vbv_maxrate=50000 / vbv_bufsize=62500 / nal_hrd=none / filler=0 / ip_ratio=1.40 / pb_ratio=1.30 / aq=3:0.80
Язык                                     : English
Default                                  : Да
Forced                                   : Нет

Аудио
Идентификатор                            : 2
Формат                                   : AC-3
Формат/Информация                        : Audio Coding 3
Расширение режима                        : CM (complete main)
Параметр Endianness формата              : Big
Идентификатор кодека                     : A_AC3
Продолжительность                        : 1 ч. 52 м.
Вид битрейта                             : Постоянный
Битрейт                                  : 384 Кбит/сек
Каналы                                   : 6 каналов
Расположение каналов                     : Front: L C R, Side: L R, LFE
Частота                                  : 48,0 КГц
Частота кадров                           : 31,250 кадров/сек (1536 spf)
Метод сжатия                             : С потерями
Размер потока                            : 309 Мбайт (5%)
Язык                                     : Russian
Default                                  : Да
Forced                                   : Нет

Текст #1
Идентификатор                            : 3
Формат                                   : UTF-8
Идентификатор кодека                     : S_TEXT/UTF8
Идентификатор кодека/Информация          : UTF-8 Plain Text
Заголовок                                : FORCED
Язык                                     : Russian
Default                                  : Да
Forced                                   : Нет

Текст #2
Идентификатор                            : 4
Формат                                   : UTF-8
Идентификатор кодека                     : S_TEXT/UTF8
Идентификатор кодека/Информация          : UTF-8 Plain Text
Заголовок                                : FULL
Язык                                     : English
Default                                  : Нет
Forced                                   : Нет

Меню
00:00:00.000                             : en:00:00:00.000
00:04:09.666                             : en:00:04:09.666
00:11:07.417                             : en:00:11:07.417
00:17:28.923                             : en:00:17:28.923
00:23:43.881                             : en:00:23:43.881
00:27:54.589                             : en:00:27:54.589
00:34:18.807                             : en:00:34:18.807
00:41:39.956                             : en:00:41:39.956
00:51:27.709                             : en:00:51:27.709
00:58:04.606                             : en:00:58:04.606
01:01:50.957                             : en:01:01:50.957
01:06:17.306                             : en:01:06:17.306
01:12:31.806                             : en:01:12:31.806
01:19:10.120                             : en:01:19:10.120
01:27:24.030                             : en:01:27:24.030
01:38:26.775                             : en:01:38:26.775




Скриншоты:
[+] Всего файлов в раздаче - 1:
Ralph.Breaks.the.Internet.(2018).BDRip-1080p.MegaPeer.(qqss44).mkv5.50 GB

Показать еще раздачи по запросу ральф:
2019-04-01 U Ральф против интернета / Ralph Breaks the Internet (2018) BDRip от ExKinoRay | Лицензия 2.18 GB ↑ 74 ↓ 17
2019-04-01 U Ральф против интернета / Ralph Breaks the Internet (2018) BDRemux 1080p от селезень | Лицензия 22.97 GB ↑ 30 ↓ 7
2019-03-31 U Ральф против интернета / Ralph Breaks the Internet (2018) BDRip 720p от селезень | Лицензия 4.31 GB ↑ 94 ↓ 31
2019-03-31 U Ральф против интернета / Ralph Breaks the Internet (2018) BDRip 1080p от селезень | Лицензия 7.49 GB ↑ 46 ↓ 52
2019-03-31 U Ральф против интернета / Ralph Breaks the Internet (2018) BDRip от MegaPeer | Лицензия 1.46 GB ↑ 1604 ↓ 56
2019-02-23 U Ральф против интернета / Ralph Breaks the Internet (2018) BDRip 720p от Scarabey | iTunes 4.12 GB ↑ 111 ↓ 29
2019-02-23 U Ральф против интернета / Ralph Breaks the Internet (2018) UHD BDRemux 2160p от селезень | 4K | HDR | iTunes 42.01 GB ↑ 51 ↓ 35

Отзывы
Зарегистрируйтесь чтобы добавить комментарий.
Обратная связь
Copyleft ©