↑↓Torrent.by
Поиск
Логин: Регистрация
Пароль: Восстановить пароль
Загрузка...

Уральские Пельмени - ЖИ-ШИ прилетели [эфир от 15.02] (2019) WEBRip 720p

Скачать uralskie-pelmeni-zhi-shi-prileteli-efir-ot-15-02-2019-webrip-720p.torrent
U Магнитная ссылка Размер: 462.36 MB Раздают: 31 Качают: 18 Добавлен: 2019-02-22 04:35:38
Уральские Пельмени - ЖИ-ШИ прилетели [эфир от 15.02] (2019) WEBRip 720p

Название: Уральские Пельмени - ЖИ-ШИ прилетели
Год выхода: 2019
Жанр: ТВ-шоу, юмор, сатира, развлекательный
Режиссер: Анастастия Ширина, Леонид Коновалов
В ролях: Дмитрий Брекоткин, Сергей Ершов, Сергей Исаев, Сергей Калугин, Вячеслав Мясников, Александр Попов, Андрей Рожков, Дмитрий Соколов (V), Максим Ярица, Юлия Михалкова, Илана Юрьева, Ксения Корнева

О фильме: У них ошибается даже т9, Они писали не тотальный, а брутальный диктант, В школе они отмечали не последний, а крайний звонок, Они называют школьный рюкзак ранцем и хранят старую готовальню, Они готовы преподать уроки смеха в новом шоу «ЖИ-ШИ прилетели»

Страна: Россия
Студия: YBW Group, СТС
Продолжительность: 01:12:00

Файл
Кодек: MPEG-4 AVC
Качество: WEBRip 720p
Видео: 1280x720, 762 Кбит/с, 25 fps
Звук: AAC-LC, 2 ch, 128 kb/s
[+] MediaInfo
General
Complete name               : UP.Zhi-Shi.Prileteli.2019.WEBRip720p.mp4
Format                      : MPEG-4
Format profile              : Base Media
Codec ID                    : isom (isom/iso2/avc1/mp41)
File size                   : 464 MiB
Duration                    : 1 h 12 min
Overall bit rate            : 896 kb/s
Writing application         : Lavf54.63.104

Video
ID                          : 1
Format                      : AVC
Format/Info                 : Advanced Video Codec
Format profile              : Main@L3.1
Format settings, CABAC      : Yes
Format settings, ReFrames   : 3 frames
Codec ID                    : avc1
Codec ID/Info               : Advanced Video Coding
Duration                    : 1 h 12 min
Bit rate                    : 762 kb/s
Width                       : 1 280 pixels
Height                      : 720 pixels
Display aspect ratio        : 16:9
Frame rate mode             : Constant
Frame rate                  : 25.000 FPS
Color space                 : YUV
Chroma subsampling          : 4:2:0
Bit depth                   : 8 bits
Scan type                   : Progressive
Bits/(Pixel*Frame)          : 0.033
Stream size                 : 395 MiB (85%)
Color range                 : Limited
Color primaries             : BT.709
Transfer characteristics    : BT.709
Matrix coefficients         : BT.709

Audio
ID                          : 2
Format                      : AAC
Format/Info                 : Advanced Audio Codec
Format profile              : LC
Codec ID                    : 40
Duration                    : 1 h 12 min
Bit rate mode               : Constant
Bit rate                    : 128 kb/s
Channel(s)                  : 2 channels
Channel positions           : Front: L R
Sampling rate               : 44.1 kHz
Frame rate                  : 43.066 FPS (1024 spf)
Compression mode            : Lossy
Stream size                 : 66.4 MiB (14%)
Default                     : Yes
Alternate group             : 1




Скриншоты:
[+] Всего файлов в раздаче - 1:
UP.Zhi-Shi.Prileteli.2019.WEBRip720p.mkv462.36 MB

Показать еще раздачи по запросу уральские:
2019-03-02 U Уральские пельмени - Азбука Уральских пельменей - З [эфир от 01.03] (2019) WEBRip 1080p 2.36 GB ↑ 90 ↓ 63
2019-02-24 U Уральские пельмени - Азбука Уральских пельменей - Ж [эфир от 22.02] (2019) WEBRip 720p 884.82 MB ↑ 577 ↓ 183
2019-02-19 U Уральские пельмени - Пляжный шизон [эфир от 08.02] (2019) WEBRip 720p 1.28 GB ↑ 139 ↓ 40
2019-02-16 U Уральские Пельмени - ЖИ-ШИ прилетели [эфир от 15.02] (2019) WEBRip 1080p 2.40 GB ↑ 310 ↓ 100
2019-02-16 U Уральские Пельмени - ЖИ-ШИ прилетели [эфир от 15.02] (2019) SATRip 923.84 MB ↑ 782 ↓ 122
2019-02-09 U Уральские пельмени - Пляжный шизон [эфир от 08.02] (2019) WEBRip 1080p 2.40 GB ↑ 344 ↓ 129
2019-02-07 U Уральские пельмени - День сырка [эфир от 01.02] (2019) WEBRip 720p 580.59 MB ↑ 167 ↓ 31

Отзывы
Зарегистрируйтесь чтобы добавить комментарий.
Обратная связь
Copyleft ©