↑↓Torrent.by
Поиск
Логин: Регистрация
Пароль: Восстановить пароль
Загрузка...

Отставник. Спасти врага [01-02 из 02] (2019) WEBRip от Files-x

Скачать otstavnik-spasti-vraga-01-02-iz-2019-webrip-ot-files-x.torrent
U Магнитная ссылка Размер: 1.22 GB Раздают: 61 Качают: 48 Добавлен: 2019-02-24 06:17:46
Отставник. Спасти врага [01-02 из 02] (2019) WEBRip от Files-x

Оригинальное название: Отставник. Спасти врага
Год выпуска: 2019
Жанр:  Боевик
Режиссер: Андрей Щербинин
В ролях: Борис Галкин, Сергей Цепов, Игорь Качаев, Наталья Круглова, Иван Паршин, Сергей Требесов, Наталья Бурмистрова

О фильме Полковник Дедов попал в тюрьму и отбывает наказание за убийство киллера. В одном из научно-исследовательских институтов обнаружена утечка сверхсекретных разработок, да и начальник службы безопасности заведения — полковник в отставке Григорьев — внезапно исчезает. На Дедова рассчитывают, ведь он из знаменитой «старой школы», поэтому способен найти предателя Родины, пока тот не сбежал за границу. Отставной полковник только рад, что можно на время покинуть тюрьму, поэтому он берется за это задание…

Выпущено: Россия
Студия:   Триикс Медиа
Продолжительность: 2 x ~ 00:49:00
Перевод: Не требуется

Файл
Качество:  WEBRip
Видео: XviD, ~ 1600 Кбит/с, 720x400
Аудио: AC3, 2 ch, 192 Кбит/с

Релиз:
[+] MediaInfo

General
Complete name                    : C:0.Otstavnik.Spasti.vraga.(2019).WEBRip.Files-x1.Otstavnik.Spasti.vraga.(2019).WEBRip.Files-x.avi
Format                           : AVI
Format/Info                      : Audio Video Interleave
File size                        : 623 MiB
Duration                         : 48mn 20s
Overall bit rate                 : 1 801 Kbps
Writing application              : VirtualDubMod 1.5.10.3 | www.virtualdub-fr.org || (build 2550/release)
Writing library                  : VirtualDubMod build 2550/release

Video
ID                               : 0
Format                           : MPEG-4 Visual
Format profile                   : Advanced Simple@L5
Format settings, BVOP            : 1
Format settings, QPel            : No
Format settings, GMC             : No warppoints
Format settings, Matrix          : Custom
Codec ID                         : XVID
Codec ID/Hint                    : XviD
Duration                         : 48mn 20s
Bit rate                         : 1 599 Kbps
Width                            : 720 pixels
Height                           : 400 pixels
Display aspect ratio             : 16:9
Frame rate                       : 25.000 fps
Color space                      : YUV
Chroma subsampling               : 4:2:0
Bit depth                        : 8 bits
Scan type                        : Progressive
Compression mode                 : Lossy
Bits/(Pixel*Frame)               : 0.222
Stream size                      : 553 MiB (89%)
Writing library                  : XviD 73

Audio
ID                               : 1
Format                           : AC-3
Format/Info                      : Audio Coding 3
Mode extension                   : CM (complete main)
Codec ID                         : 2000
Duration                         : 48mn 20s
Bit rate mode                    : Constant
Bit rate                         : 192 Kbps
Channel(s)                       : 2 channels
Channel positions                : Front: L R
Sampling rate                    : 48.0 KHz
Bit depth                        : 16 bits
Compression mode                 : Lossy
Stream size                      : 66.4 MiB (11%)
Alignment                        : Split accross interleaves
Interleave, duration             : 40 ms (1.00 video frame)
Interleave, preload duration     : 500 ms




Скриншоты:
[+] Всего файлов в раздаче - 2:
01.Otstavnik.Spasti.vraga.(2019).WEBRip.Files-x.avi622.74 MB
02.Otstavnik.Spasti.vraga.(2019).WEBRip.Files-x.avi622.36 MB

Показать еще раздачи по запросу отставник:
2019-02-25 U Отставник. Один за всех [01-02 из 02] (2019) HDTV 1080p от GeneralFilm 4.82 GB ↑ 94 ↓ 29
2019-02-25 U Отставник. Спасти врага [01-02 из 02] (2019) HDTV 1080p от GeneralFilm 4.85 GB ↑ 56 ↓ 28
2019-02-24 U Отставник. Один за всех [01-02 серия из 02] (2019) WEBRip от Files-x 1.21 GB ↑ 138 ↓ 92
2019-02-24 U Отставник. Спасти врага [01-02 из 02] (2019) WEBRip 720p от GeneralFilm 2.49 GB ↑ 104 ↓ 61
2019-02-24 U Отставник. Один за всех [01-02 из 02] (2019) WEBRip 720p от GeneralFilm 2.48 GB ↑ 107 ↓ 53
2019-02-24 U Отставник. Спасти врага [01-02 из 02] (2019) WEBRip-AVC от Files-x 1.48 GB ↑ 75 ↓ 64
2019-02-24 U Отставник. Один за всех [01-02 из 02] (2019) WEBRip-AVC от Files-x 1.47 GB ↑ 80 ↓ 63

Отзывы
Зарегистрируйтесь чтобы добавить комментарий.
Обратная связь
Copyleft ©