↑↓Torrent.by
Поиск
Логин: Регистрация
Пароль: Восстановить пароль
Загрузка...

Отставник. Спасти врага [01-02 из 02] (2019) WEBRip 720p от GeneralFilm

Скачать otstavnik-spasti-vraga-01-02-iz-2019-webrip-720p-ot-generalfilm.torrent
U Магнитная ссылка Размер: 2.49 GB Раздают: 104 Качают: 61 Добавлен: 2019-02-24 06:18:00
Отставник. Спасти врага [01-02 из 02] (2019) WEBRip 720p от GeneralFilm

Год выпуска: 2019
Жанр:  Боевик
Выпущено: Россия, Триикс Медиа
Режиссер: Андрей Щербинин
В ролях: Борис Галкин, Сергей Цепов, Игорь Качаев, Наталья Круглова, Иван Паршин, Сергей Требесов, Наталья Бурмистрова

О фильме: Полковник Дедов попал в тюрьму и отбывает наказание за убийство киллера. В одном из научно-исследовательских институтов обнаружена утечка сверхсекретных разработок, да и начальник службы безопасности заведения — полковник в отставке Григорьев — внезапно исчезает. На Дедова рассчитывают, ведь он из знаменитой «старой школы», поэтому способен найти предателя Родины, пока тот не сбежал за границу. Отставной полковник только рад, что можно на время покинуть тюрьму, поэтому он берется за это задание…

Качество: WEBRip (720p)
Видео: MPEG-4 AVC, ~ 3500 Кбит/с, 1280x720
Аудио: Русский (AC3, 2 ch, 192 Кбит/с)
Продолжительность: 2 x ~ 00:48:00
Перевод: Не требуется
Субтитры: нет

Релиз:
[+] MediaInfo

Общее
Уникальный идентификатор                 : 254019824601420169892839820782146040899 (0xBF1A704C776F629A9C4C989D46DE3443)
Полное имя                               : D:Otstavnik.Spasti vraga.WEBRip.(720p).GeneralFilm1.Otstavnik.Spasti vraga.WEBRip.(720p).GeneralFilm.mkv
Формат                                   : Matroska
Версия формата                           : Version 2
Размер файла                             : 1,25 Гбайт
Продолжительность                        : 48 м. 20 с.
Общий поток                              : 3692 Кбит/сек
Дата кодирования                         : UTC 2019-02-24 00:00:15
Программа кодирования                    : mkvmerge v7.8.0 ('River Man') 32bit built on Apr  3 2015 12:11:22
Библиотека кодирования                   : libebml v1.3.1 + libmatroska v1.4.2

Видео
Идентификатор                            : 1
Формат                                   : AVC
Формат/Информация                        : Advanced Video Codec
Профиль формата                          : High@L4.1
Параметр CABAC формата                   : Да
Параметр ReFrames формата                : 9 кадров
Идентификатор кодека                     : V_MPEG4/ISO/AVC
Продолжительность                        : 48 м. 21 с.
Битрейт                                  : 3500 Кбит/сек
Ширина                                   : 1280 пикселей
Высота                                   : 720 пикселей
Соотношение сторон                       : 16:9
Режим частоты кадров                     : Постоянный
Частота кадров                           : 25,000 кадров/сек
Цветовое пространство                    : YUV
Субдискретизация насыщенности            : 4:2:0
Битовая глубина                          : 8 бит
Тип развёртки                            : Прогрессивная
Бит/(Пиксели*Кадры)                      : 0.152
Размер потока                            : 1,16 Гбайт (93%)
Библиотека кодирования                   : x264 core 146 r2538 121396c
Настройки программы                      : cabac=1 / ref=9 / deblock=1:-2:-1 / analyse=0x3:0x113 / me=umh / subme=9 / psy=1 / psy_rd=1.00:0.15 / mixed_ref=1 / me_range=32 / chroma_me=1 / trellis=2 / 8x8dct=1 / cqm=0 / deadzone=21,11 / fast_pskip=0 / chroma_qp_offset=-3 / threads=18 / lookahead_threads=3 / sliced_threads=0 / nr=0 / decimate=1 / interlaced=0 / bluray_compat=0 / constrained_intra=0 / bframes=9 / b_pyramid=2 / b_adapt=2 / b_bias=0 / direct=1 / weightb=1 / open_gop=0 / weightp=2 / keyint=250 / keyint_min=25 / scenecut=40 / intra_refresh=0 / rc_lookahead=40 / rc=2pass / mbtree=0 / bitrate=3500 / ratetol=1.0 / qcomp=0.60 / qpmin=0 / qpmax=69 / qpstep=4 / cplxblur=20.0 / qblur=0.5 / vbv_maxrate=14000 / vbv_bufsize=14000 / nal_hrd=none / filler=0 / ip_ratio=1.40 / pb_ratio=1.30 / aq=2:1.00
Default                                  : Да
Forced                                   : Нет
Цветовой диапазон                        : Limited
Основные цвета                           : BT.709
Характеристики трансфера                 : BT.709
Коэффициенты матрицы                     : BT.709

Аудио
Идентификатор                            : 2
Формат                                   : AC-3
Формат/Информация                        : Audio Coding 3
Расширение режима                        : CM (complete main)
Параметр Endianness формата              : Big
Идентификатор кодека                     : A_AC3
Продолжительность                        : 48 м. 20 с.
Вид битрейта                             : Постоянный
Битрейт                                  : 192 Кбит/сек
Каналы                                   : 2 канала
Расположение каналов                     : Front: L R
Частота                                  : 48,0 КГц
Частота кадров                           : 31,250 кадров/сек (1536 spf)
Битовая глубина                          : 16 бит
Метод сжатия                             : С потерями
Размер потока                            : 66,4 Мбайт (5%)
Default                                  : Да
Forced                                   : Нет

Общее
Уникальный идентификатор                 : 173386339179333418954121094698471594873 (0x8270FE87A5C00A0C81ABD957477D1B79)
Полное имя                               : D:Otstavnik.Spasti vraga.WEBRip.(720p).GeneralFilm2.Otstavnik.Spasti vraga.WEBRip.(720p).GeneralFilm.mkv
Формат                                   : Matroska
Версия формата                           : Version 2
Размер файла                             : 1,25 Гбайт
Продолжительность                        : 48 м. 17 с.
Общий поток                              : 3693 Кбит/сек
Дата кодирования                         : UTC 2019-02-24 00:53:27
Программа кодирования                    : mkvmerge v7.8.0 ('River Man') 32bit built on Apr  3 2015 12:11:22
Библиотека кодирования                   : libebml v1.3.1 + libmatroska v1.4.2

Видео
Идентификатор                            : 1
Формат                                   : AVC
Формат/Информация                        : Advanced Video Codec
Профиль формата                          : High@L4.1
Параметр CABAC формата                   : Да
Параметр ReFrames формата                : 9 кадров
Идентификатор кодека                     : V_MPEG4/ISO/AVC
Продолжительность                        : 48 м. 18 с.
Битрейт                                  : 3500 Кбит/сек
Ширина                                   : 1280 пикселей
Высота                                   : 720 пикселей
Соотношение сторон                       : 16:9
Режим частоты кадров                     : Постоянный
Частота кадров                           : 25,000 кадров/сек
Цветовое пространство                    : YUV
Субдискретизация насыщенности            : 4:2:0
Битовая глубина                          : 8 бит
Тип развёртки                            : Прогрессивная
Бит/(Пиксели*Кадры)                      : 0.152
Размер потока                            : 1,16 Гбайт (93%)
Библиотека кодирования                   : x264 core 146 r2538 121396c
Настройки программы                      : cabac=1 / ref=9 / deblock=1:-2:-1 / analyse=0x3:0x113 / me=umh / subme=9 / psy=1 / psy_rd=1.00:0.15 / mixed_ref=1 / me_range=32 / chroma_me=1 / trellis=2 / 8x8dct=1 / cqm=0 / deadzone=21,11 / fast_pskip=0 / chroma_qp_offset=-3 / threads=18 / lookahead_threads=3 / sliced_threads=0 / nr=0 / decimate=1 / interlaced=0 / bluray_compat=0 / constrained_intra=0 / bframes=9 / b_pyramid=2 / b_adapt=2 / b_bias=0 / direct=1 / weightb=1 / open_gop=0 / weightp=2 / keyint=250 / keyint_min=25 / scenecut=40 / intra_refresh=0 / rc_lookahead=40 / rc=2pass / mbtree=0 / bitrate=3500 / ratetol=1.0 / qcomp=0.60 / qpmin=0 / qpmax=69 / qpstep=4 / cplxblur=20.0 / qblur=0.5 / vbv_maxrate=14000 / vbv_bufsize=14000 / nal_hrd=none / filler=0 / ip_ratio=1.40 / pb_ratio=1.30 / aq=2:1.00
Default                                  : Да
Forced                                   : Нет
Цветовой диапазон                        : Limited
Основные цвета                           : BT.709
Характеристики трансфера                 : BT.709
Коэффициенты матрицы                     : BT.709

Аудио
Идентификатор                            : 2
Формат                                   : AC-3
Формат/Информация                        : Audio Coding 3
Расширение режима                        : CM (complete main)
Параметр Endianness формата              : Big
Идентификатор кодека                     : A_AC3
Продолжительность                        : 48 м. 17 с.
Вид битрейта                             : Постоянный
Битрейт                                  : 192 Кбит/сек
Каналы                                   : 2 канала
Расположение каналов                     : Front: L R
Частота                                  : 48,0 КГц
Частота кадров                           : 31,250 кадров/сек (1536 spf)
Битовая глубина                          : 16 бит
Метод сжатия                             : С потерями
Размер потока                            : 66,3 Мбайт (5%)
Default                                  : Да
Forced                                   : Нет

Общее
Полное имя                               : D:Otstavnik.Spasti vraga.WEBRip.(720p).GeneralFilmOtstavnik.Spasti vraga.WEBRip.(720p).GeneralFilm.torrent
Размер файла                             : 15,4 Кбайт




Скриншоты:
[+] Всего файлов в раздаче - 2:
01.Otstavnik.Spasti vraga.WEBRip.(720p).GeneralFilm.mkv1.25 GB
02.Otstavnik.Spasti vraga.WEBRip.(720p).GeneralFilm.mkv1.25 GB

Показать еще раздачи по запросу отставник:
2019-02-25 U Отставник. Один за всех [01-02 из 02] (2019) HDTV 1080p от GeneralFilm 4.82 GB ↑ 93 ↓ 29
2019-02-25 U Отставник. Спасти врага [01-02 из 02] (2019) HDTV 1080p от GeneralFilm 4.85 GB ↑ 56 ↓ 28
2019-02-24 U Отставник. Один за всех [01-02 серия из 02] (2019) WEBRip от Files-x 1.21 GB ↑ 138 ↓ 92
2019-02-24 U Отставник. Один за всех [01-02 из 02] (2019) WEBRip 720p от GeneralFilm 2.48 GB ↑ 107 ↓ 53
2019-02-24 U Отставник. Спасти врага [01-02 из 02] (2019) WEBRip от Files-x 1.22 GB ↑ 61 ↓ 48
2019-02-24 U Отставник. Спасти врага [01-02 из 02] (2019) WEBRip-AVC от Files-x 1.48 GB ↑ 75 ↓ 64
2019-02-24 U Отставник. Один за всех [01-02 из 02] (2019) WEBRip-AVC от Files-x 1.47 GB ↑ 80 ↓ 63

Отзывы
Зарегистрируйтесь чтобы добавить комментарий.
Обратная связь
Copyleft ©