↑↓Torrent.by
Поиск
Логин: Регистрация
Пароль: Восстановить пароль
Загрузка...

Отставник. Спасти врага [01-02 из 02] (2019) HDTV 1080p от GeneralFilm

Скачать otstavnik-spasti-vraga-01-02-iz-2019-hdtv-1080p-ot-generalfilm.torrent
U Магнитная ссылка Размер: 4.85 GB Раздают: 56 Качают: 28 Добавлен: 2019-02-25 06:21:46
Отставник. Спасти врага  [01-02 из 02] (2019) HDTV 1080p от GeneralFilm

Отставник. Спасти врага


Год выхода: 2019
Страна: Россия
Жанр: Боевик
Студия:  Триикс Медиа
Продолжительность: ~00:48:21
Перевод: Не требуется
Субтитры: Отсутствуют

Режиссер: Андрей Щербинин

В ролях: Борис Галкин, Сергей Цепов, Игорь Качаев, Наталья Круглова, Иван Паршин, Сергей Требесов, Наталья Бурмистрова

О фильме: Полковник Дедов попал в тюрьму и отбывает наказание за убийство киллера. В одном из научно-исследовательских институтов обнаружена утечка сверхсекретных разработок, да и начальник службы безопасности заведения — полковник в отставке Григорьев — внезапно исчезает. На Дедова рассчитывают, ведь он из знаменитой «старой школы», поэтому способен найти предателя Родины, пока тот не сбежал за границу. Отставной полковник только рад, что можно на время покинуть тюрьму, поэтому он берется за это задание.

Качество: HDTV 1080p Запись с
Формат: MKV
Видео кодек: AVC
Аудио кодек: AC3
Видео: AVC, 1920x1080 (16:9), 7050 kbps, 25 fps, 0,136 bpp
Аудио: AC3 / 2.0 / 48.0 kHz / 192 kbps /
Релиз:
[+] Отчет МедиаИнфо

General
Unique ID : 241134623114514961989939967376755651602 (0xB568D6D11FB7F3C98A4889CA0DEDF412)
Complete name : E:Запись с твOtstavnik Spasti vraga 2019 HDTV 1080p.R.G.GeneralfilmOtstavnik Spasti vraga.s01.e01.2019.HDTV 1080p.by.White Smoke.R.G.Generalfilm.mkv
Format : Matroska
Format version : Version 4 / Version 2
File size : 2.41 GiB
Duration : 47 min 49 s
Overall bit rate mode : Constant
Overall bit rate : 7 213 kb/s
Movie name : Otstavnik Spasti vraga.s01.e01.2019.HDTV 1080p.by.White Smoke.R.G.Generalfilm.mkv
Encoded date : UTC 2019-02-24 09:23:33
Writing application : mkvmerge v6.8.0 ('Theme for Great Cities') 64bit built on Mar 2 2014 21:34:26
Writing library : libebml v1.3.0 + libmatroska v1.4.1
Cover : Yes
Attachments : cover.jpg

Video
ID : 1
Format : AVC
Format/Info : Advanced Video Codec
Format profile : High@L4.1
Format settings : CABAC / 3 Ref Frames
Format settings, CABAC : Yes
Format settings, ReFrames : 3 frames
Codec ID : V_MPEG4/ISO/AVC
Duration : 47 min 49 s
Bit rate mode : Constant
Bit rate : 7 051 kb/s
Width : 1 920 pixels
Height : 1 080 pixels
Display aspect ratio : 16:9
Frame rate mode : Constant
Frame rate : 25.000 FPS
Standard : PAL
Color space : YUV
Chroma subsampling : 4:2:0
Bit depth : 8 bits
Scan type : Progressive
Bits/(Pixel*Frame) : 0.136
Stream size : 2.30 GiB (95%)
Default : Yes
Forced : No
Color range : Limited
Color primaries : BT.709
Transfer characteristics : BT.709
Matrix coefficients : BT.709

Audio
ID : 2
Format : AC-3
Format/Info : Audio Coding 3
Commercial name : Dolby Digital
Codec ID : A_AC3
Duration : 47 min 49 s
Bit rate mode : Constant
Bit rate : 192 kb/s
Channel(s) : 2 channels
Channel layout : L R
Sampling rate : 48.0 kHz
Frame rate : 31.250 FPS (1536 SPF)
Bit depth : 16 bits
Compression mode : Lossy
Stream size : 65.7 MiB (3%)
Service kind : Complete Main
Default : Yes
Forced : No



Скриншоты:
[+] Всего файлов в раздаче - 2:
Otstavnik Spasti vraga.s01.e01.2019.HDTV 1080p.by.White Smoke.R.G.Generalfilm.mkv2.41 GB
Otstavnik Spasti vraga.s01.e02.2019.HDTV 1080p.by.White Smoke.R.G.Generalfilm.mkv2.44 GB

Показать еще раздачи по запросу отставник:
2019-02-25 U Отставник. Один за всех [01-02 из 02] (2019) HDTV 1080p от GeneralFilm 4.82 GB ↑ 93 ↓ 29
2019-02-24 U Отставник. Один за всех [01-02 серия из 02] (2019) WEBRip от Files-x 1.21 GB ↑ 138 ↓ 92
2019-02-24 U Отставник. Спасти врага [01-02 из 02] (2019) WEBRip 720p от GeneralFilm 2.49 GB ↑ 107 ↓ 61
2019-02-24 U Отставник. Один за всех [01-02 из 02] (2019) WEBRip 720p от GeneralFilm 2.48 GB ↑ 108 ↓ 53
2019-02-24 U Отставник. Спасти врага [01-02 из 02] (2019) WEBRip от Files-x 1.22 GB ↑ 61 ↓ 48
2019-02-24 U Отставник. Спасти врага [01-02 из 02] (2019) WEBRip-AVC от Files-x 1.48 GB ↑ 77 ↓ 64
2019-02-24 U Отставник. Один за всех [01-02 из 02] (2019) WEBRip-AVC от Files-x 1.47 GB ↑ 82 ↓ 63

Отзывы
Зарегистрируйтесь чтобы добавить комментарий.
Обратная связь
Copyleft ©