↑↓Torrent.by
Поиск
Логин: Регистрация
Пароль: Восстановить пароль
Загрузка...

Отставник. Один за всех [01-02 из 02] (2019) HDTV 1080p от GeneralFilm

Скачать otstavnik-odin-za-vseh-01-02-iz-2019-hdtv-1080p-ot-generalfilm.torrent
U Магнитная ссылка Размер: 4.82 GB Раздают: 75 Качают: 29 Добавлен: 2019-02-25 06:22:38
Отставник. Один за всех [01-02 из 02] (2019) HDTV 1080p от GeneralFilm

Отставник. Один за всех

Год выхода: 2019
Страна: Россия
Жанр: Боевик
Студия:  Триикс Медиа
Продолжительность: ~00:48:47
Перевод: Не требуется
Субтитры: Отсутствуют

Режиссер: Андрей Щербинин

В ролях: Борис Галкин, Сергей Цепов, Игорь Качаев, Наталья Круглова, Иван Паршин, Сергей Требесов, Наталья Бурмистрова

О фильме: Полковник Дедов давно отошел от больших дел, найдя свое призвание в военно-патриотическом воспитании молодежи. Но однажды на него совершается покушение: в его квартиру проникает неизвестный, и только благодаря военной сноровке и навыкам самообороны Дедову удается избежать смерти. Его положение усложняется тем, что в борьбе с нападавшим он убивает киллера. Дедов попадает за решетку. Кому мог помешать старый отставник? Есть ли связь между покушением и гибелью его старого боевого товарища Егорова? И что на самом деле случилось во время военной операции в Анголе в 2002 году? Чтобы найти ответы на эти вопросы, Дедову нужно сбежать из тюрьмы.

Качество: HDTV 1080p Запись с
Формат: MKV
Видео кодек: AVC
Аудио кодек: AC3
Видео: AVC, 1920x1080 (16:9), 7050 kbps, 25 fps, 0,136 bpp
Аудио: AC3 / 2.0 / 48.0 kHz / 192 kbps /
Релиз:
[+] Отчет МедиаИнфо

General
Unique ID                   : 233843322669289974318584362586244641332 (0xAFEC95F3366A9565A684743B911BF234)
Complete name               : E:Запись с твOtstavnik Odin za vsex 2019 HDTV 1080p.R.G.GeneralfilmOtstavnik Odin za vsex.s01.e01.2019.HDTV 1080p.by.White Smoke.R.G.Generalfilm.mkv
Format                      : Matroska
Format version              : Version 4 / Version 2
File size                   : 2.44 GiB
Duration                    : 48 min 16 s
Overall bit rate mode       : Constant
Overall bit rate            : 7 228 kb/s
Movie name                  : Otstavnik Odin za vsex.s01.e01.2019.HDTV 1080p.by.White Smoke.R.G.Generalfilm.mkv
Encoded date                : UTC 2019-02-24 06:53:33
Writing application         : mkvmerge v6.8.0 ('Theme for Great Cities') 64bit built on Mar  2 2014 21:34:26
Writing library             : libebml v1.3.0 + libmatroska v1.4.1
Cover                       : Yes
Attachments                 : cover.jpg

Video
ID                          : 1
Format                      : AVC
Format/Info                 : Advanced Video Codec
Format profile              : High@L4.1
Format settings             : CABAC / 3 Ref Frames
Format settings, CABAC      : Yes
Format settings, ReFrames   : 3 frames
Codec ID                    : V_MPEG4/ISO/AVC
Duration                    : 48 min 16 s
Bit rate mode               : Constant
Bit rate                    : 7 051 kb/s
Width                       : 1 920 pixels
Height                      : 1 080 pixels
Display aspect ratio        : 16:9
Frame rate mode             : Constant
Frame rate                  : 25.000 FPS
Standard                    : PAL
Color space                 : YUV
Chroma subsampling          : 4:2:0
Bit depth                   : 8 bits
Scan type                   : Progressive
Bits/(Pixel*Frame)          : 0.136
Stream size                 : 2.32 GiB (95%)
Default                     : Yes
Forced                      : No
Color range                 : Limited
Color primaries             : BT.709
Transfer characteristics    : BT.709
Matrix coefficients         : BT.709

Audio
ID                          : 2
Format                      : AC-3
Format/Info                 : Audio Coding 3
Commercial name             : Dolby Digital
Codec ID                    : A_AC3
Duration                    : 48 min 16 s
Bit rate mode               : Constant
Bit rate                    : 192 kb/s
Channel(s)                  : 2 channels
Channel layout              : L R
Sampling rate               : 48.0 kHz
Frame rate                  : 31.250 FPS (1536 SPF)
Bit depth                   : 16 bits
Compression mode            : Lossy
Stream size                 : 66.3 MiB (3%)
Service kind                : Complete Main
Default                     : Yes
Forced                      : No



Скриншоты:
[+] Всего файлов в раздаче - 2:
Otstavnik Odin za vsex.s01.e01.2019.HDTV 1080p.by.White Smoke.R.G.Generalfilm.mkv2.44 GB
Otstavnik Odin za vsex.s01.e02.2019.HDTV 1080p.by.White Smoke.R.G.Generalfilm.mkv2.39 GB

Показать еще раздачи по запросу отставник:
2019-02-25 U Отставник. Спасти врага [01-02 из 02] (2019) HDTV 1080p от GeneralFilm 4.85 GB ↑ 55 ↓ 28
2019-02-24 U Отставник. Один за всех [01-02 серия из 02] (2019) WEBRip от Files-x 1.21 GB ↑ 138 ↓ 92
2019-02-24 U Отставник. Спасти врага [01-02 из 02] (2019) WEBRip 720p от GeneralFilm 2.49 GB ↑ 87 ↓ 61
2019-02-24 U Отставник. Один за всех [01-02 из 02] (2019) WEBRip 720p от GeneralFilm 2.48 GB ↑ 105 ↓ 52
2019-02-24 U Отставник. Спасти врага [01-02 из 02] (2019) WEBRip от Files-x 1.22 GB ↑ 58 ↓ 48
2019-02-24 U Отставник. Спасти врага [01-02 из 02] (2019) WEBRip-AVC от Files-x 1.48 GB ↑ 68 ↓ 65
2019-02-24 U Отставник. Один за всех [01-02 из 02] (2019) WEBRip-AVC от Files-x 1.47 GB ↑ 76 ↓ 63

Отзывы
Зарегистрируйтесь чтобы добавить комментарий.
Обратная связь
Copyleft ©