↑↓Torrent.by
Поиск
Логин: Регистрация
Пароль: Восстановить пароль
Загрузка...

Русский Бес (2018) WEB-DLRip от GeneralFilm | iTunes

Скачать russkiy-bes-2018-web-dlrip-ot-generalfilm-itunes.torrent
U Магнитная ссылка Размер: 746.37 MB Раздают: 270 Качают: 64 Добавлен: 2019-02-26 08:41:37
Русский Бес (2018) WEB-DLRip от GeneralFilm | iTunes

Оригинальное название: Русский Бес
Год выпуска: 2018
Жанр:  Комедия, триллер, драма
Выпущено: Россия, Артлайт, Инвада Фильм
Режиссер: Григорий Константинопольский
В ролях: Иван Макаревич, Любовь Аксенова, Юлия Ауг, Виктория Исакова, Тимофей Трибунцев, Ксения Раппопорт, Александр Стриженов, Григорий Константинопольский, Виталий Кищенко, Михаил Ефремов

О фильме: Святослав Иванов влюблен в Асю и решает на ней жениться. По образованию он художник-дизайнер, а отец Аси - управляющий крупного российского банка. Святослав решает начать собственный бизнес - открыть ресторан, чтобы создать для Аси те условия жизни, к которым она привыкла. На пути молодого героя неожиданно встает ряд серьезных препятствий, угрожающих его жизни... Он обнаруживает, что у него есть тайный недоброжелатель, который хочет погубить и его бизнес, и его самого. Молодой человек прибегает к самым крайним мерам, постепенно распутывая цепочку тайного заговора... И под конец истории Святославу все-таки удается найти ответ, кто же был его врагом.

Качество: WEB-DLRip
Видео: XviD build 73, 720x304 (2.37:1), 25.000 fps, 905 Kbps (0.165 bit/pixel)
Аудио: 48.0 kHz, MP3, 2/0 ch, 128 kbps
Продолжительность: 01:40:06
Перевод: Не требуется
Cубтитры: нет

Релиз:


[+] MediaInfo

General
Complete name               : D:RazdachiRusskij.Bes.2018.WEB-DLRip.GeneralFilm.avi
Format                      : AVI
Format/Info                 : Audio Video Interleave
File size                   : 746 MiB
Duration                    : 1 h 40 min
Overall bit rate            : 1 042 kb/s
Writing application         : VirtualDubMod 1.5.10.3 | www.virtualdub-fr.org || (build 2550/release)
Writing library             : VirtualDubMod build 2550/release

Video
ID                          : 0
Format                      : MPEG-4 Visual
Format profile              : Advanced Simple@L5
Format settings             : BVOP1 / Custom Matrix
Format settings, BVOP       : 1
Format settings, QPel       : No
Format settings, GMC        : No warppoints
Format settings, Matrix     : Custom
Codec ID                    : XVID
Codec ID/Hint               : XviD
Duration                    : 1 h 40 min
Bit rate                    : 905 kb/s
Width                       : 720 pixels
Height                      : 304 pixels
Display aspect ratio        : 2.35:1
Frame rate                  : 25.000 FPS
Color space                 : YUV
Chroma subsampling          : 4:2:0
Bit depth                   : 8 bits
Scan type                   : Progressive
Compression mode            : Lossy
Bits/(Pixel*Frame)          : 0.165
Stream size                 : 648 MiB (87%)
Writing library             : XviD 73

Audio
ID                          : 1
Format                      : MPEG Audio
Format version              : Version 1
Format profile              : Layer 3
Codec ID                    : 55
Codec ID/Hint               : MP3
Duration                    : 1 h 40 min
Bit rate mode               : Constant
Bit rate                    : 128 kb/s
Channel(s)                  : 2 channels
Sampling rate               : 48.0 kHz
Frame rate                  : 41.667 FPS (1152 SPF)
Compression mode            : Lossy
Stream size                 : 91.7 MiB (12%)
Alignment                   : Aligned on interleaves
Interleave, duration        : 40  ms (1.00 video frame)
Interleave, preload duratio : 504  ms
Writing library             : LAME3.99r
Encoding settings           : -m s -V 4 -q 2 -lowpass 17 -b 128



Скриншоты:
[+] Всего файлов в раздаче - 1:
Russkij.Bes.2018.WEB-DLRip.GeneralFilm.avi746.37 MB

Показать еще раздачи по запросу русский:
2019-04-13 U Сборник - 100 хитов в дорогу: Русский выпуск (2019) MP3 837.37 MB ↑ 313 ↓ 95
2019-03-20 U Русский Бес (2018) WEB-DLRip-AVC от ExKinoRay | iTunes 743.90 MB ↑ 97 ↓ 17
2019-03-19 U BEEF: Русский хип-хоп (2019) WEB-DLRip от Tapochek | iTunes 1.46 GB ↑ 78 ↓ 18
2019-03-19 U BEEF: Русский хип-хоп (2019) WEB-DL 1080p от Tapochek | iTunes 3.10 GB ↑ 182 ↓ 18
2019-02-28 U Сборник - Русский Шансон 84 (2019) MP3 от Виталия 72 584.48 MB ↑ 86 ↓ 30
2019-02-26 U Русский Бес (2018) WEB-DLRip | iTunes 1.46 GB ↑ 522 ↓ 136
2019-02-25 U Русский Бес (2018) WEB-DL 1080p 3.84 GB ↑ 269 ↓ 208

Отзывы
Зарегистрируйтесь чтобы добавить комментарий.
Обратная связь
Copyleft ©