↑↓Torrent.by
Поиск
Логин: Регистрация
Пароль: Восстановить пароль
Загрузка...

Господство Суперменов / Reign of the Supermen (2019) BDRip 1080p от OlLanDGroup | HDRezka Studio

Скачать gospodstvo-supermenov-reign-of-the-supermen-2019-bdrip-1080p-ot-ollandgroup-hdrezka-studio.torrent
U Магнитная ссылка Размер: 4.74 GB Раздают: 60 Качают: 12 Добавлен: 2019-02-26 15:54:45
Господство Суперменов / Reign of the Supermen (2019) BDRip 1080p от OlLanDGroup | HDRezka Studio

Господство Суперменов / Reign of the Supermen
«Nothing ever truly dies»

Год выпуска: 2019
Страна: США
Производство: DC Entertainment
Жанр:  Мультфильм, фантастика, боевик, комикс, полнометражный

Режиссёр: Сэм Лью
В ролях: Кэмерон Монахэн, Розарио Доусон, Натан Филлион, Ребекка Ромейн, Рэйн Уилсон, Джерри О`Коннелл, Дженнифер Хейл, Кристофер Горам, Шемар Мур, Бренда Стронг

Перевод: Профессиональный (многоголосый, закадровый) | [HDRezka Studio]
Субтитры: Русские (полные), Английские (полные, SDH)
Реклама: Отсутствует

Описание: Продолжение мультфильма "Смерть Супермена". История начинается через шесть месяцев после трагической смерти Супермена, погибшего во время сражения с чудовищным злодеем по имени Думсдэй. Мир все еще оплакивает потерю великого героя, когда его тело невероятным образом исчезает из могилы. В то время как власти проводят расследование, ситуация в городе усложняется внезапным появлением новых сверхлюдей, желающих стать преемниками Человека из стали. Супербой, Киборг-Супермен, Сталь и Уничтожитель – каждый из них отличается уникальным характером и стилем борьбы с преступностью, но лишь один сможет занять место супергероя.

Качество: BDRip 1080p | BDRip 1080p | Reign.of.the.Supermen.2019.1080p.BluRay.DTS.x264-MTeam
Продолжительность: 01:27:13

Формат: MKV
Видео кодек: MPEG-4 AVC
Аудио кодек: AC3
Видео: 1920x1080 (16:9), 23,976 fps, x264 ~6 082 Кбит/сек, 0.122 bit/pixel
Аудио #1: 48 kHz, AC3 Dolby Digital, 2 (L,R) ch, ~192.00 kbps avg | RUS (HDRezka Studio)
Аудио #2: 48 kHz, DTS Digital Theater System, 3/2 (L,C,R,l,r) + LFE ch, ~1 509.00 kbps avg | ENG

Дата премьеры (мир): 10 января 2019
Дата премьеры (РФ):
Цифровой релиз:

Релиз:


[+] MediaInfo

Общее
Уникальный идентификатор                 : 17605448446644257634493766976083725171 (0xD3EAF9FF99DF2541BEB238B1B920B73)
Полное имя                               : F:OlLanDGroupReign.of.the.Supermen.2019.BDRip(1080p).OlLanDGroup.mkv
Формат                                   : Matroska
Версия формата                           : Version 4 / Version 2
Размер файла                             : 4,74 Гбайт
Продолжительность                        : 1 ч. 27 м.
Общий поток                              : 7761 Кбит/сек
Название фильма                          : Reign.of.the.Supermen.2019   #TorpedoUK#
Дата кодирования                         : UTC 2019-02-25 05:54:41
Программа кодирования                    : mkvmerge v29.0.0 ('Like It Or Not') 64-bit
Библиотека кодирования                   : libebml v1.3.6 + libmatroska v1.4.9

Видео
Идентификатор                            : 1
Формат                                   : AVC
Формат/Информация                        : Advanced Video Codec
Профиль формата                          : High@L4.1
Параметр CABAC формата                   : Да
Параметр ReFrames формата                : 4 кадра
Идентификатор кодека                     : V_MPEG4/ISO/AVC
Продолжительность                        : 1 ч. 27 м.
Битрейт                                  : 6082 Кбит/сек
Ширина                                   : 1920 пикселей
Высота                                   : 1080 пикселей
Соотношение сторон                       : 16:9
Режим частоты кадров                     : Постоянный
Частота кадров                           : 23,976 (24000/1001) кадра/сек
Цветовое пространство                    : YUV
Субдискретизация насыщенности            : 4:2:0
Битовая глубина                          : 8 бит
Тип развёртки                            : Прогрессивная
Бит/(Пиксели*Кадры)                      : 0.122
Размер потока                            : 3,71 Гбайт (78%)
Библиотека кодирования                   : x264 core 157 r2938 2b00a84 TnP@MTeam Mod
Настройки программы                      : cabac=1 / ref=4 / deblock=1:-3:-3 / analyse=0x3:0x133 / me=umh / subme=10 / psy=1 / psy_rd=1.05:0.00 / mixed_ref=1 / me_range=24 / chroma_me=1 / trellis=2 / 8x8dct=1 / cqm=0 / deadzone=21,11 / fast_pskip=0 / chroma_qp_offset=-2 / threads=12 / lookahead_threads=2 / sliced_threads=0 / nr=0 / decimate=0 / interlaced=0 / bluray_compat=0 / constrained_intra=0 / bframes=8 / b_pyramid=2 / b_adapt=2 / b_bias=0 / direct=3 / weightb=1 / open_gop=0 / weightp=2 / keyint=250 / keyint_min=24 / scenecut=40 / intra_refresh=0 / rc_lookahead=250 / rc=crf / mbtree=0 / crf=16.7 / qcomp=0.60 / qpmin=0 / qpmax=69 / qpstep=4 / vbv_maxrate=62500 / vbv_bufsize=78125 / crf_max=0.0 / nal_hrd=none / filler=0 / ip_ratio=1.30 / pb_ratio=1.20 / aq=3:0.80
Язык                                     : English
Default                                  : Да
Forced                                   : Нет
Цветовой диапазон                        : Limited
Основные цвета                           : BT.709
Коэффициенты матрицы                     : BT.709

Аудио #1
Идентификатор                            : 2
Формат                                   : AC-3
Формат/Информация                        : Audio Coding 3
Расширение режима                        : CM (complete main)
Параметр Endianness формата              : Big
Идентификатор кодека                     : A_AC3
Продолжительность                        : 1 ч. 27 м.
Вид битрейта                             : Постоянный
Битрейт                                  : 192 Кбит/сек
Каналы                                   : 2 канала
Расположение каналов                     : Front: L R
Частота                                  : 48,0 КГц
Частота кадров                           : 31,250 кадров/сек (1536 spf)
Битовая глубина                          : 16 бит
Метод сжатия                             : С потерями
Размер потока                            : 120 Мбайт (2%)
Заголовок                                : MVO [HDRezka Studio]
Язык                                     : Russian
Default                                  : Да
Forced                                   : Нет

Аудио #2
Идентификатор                            : 3
Формат                                   : DTS
Формат/Информация                        : Digital Theater Systems
Режим                                    : 16
Параметр Endianness формата              : Big
Идентификатор кодека                     : A_DTS
Продолжительность                        : 1 ч. 27 м.
Вид битрейта                             : Постоянный
Битрейт                                  : 1509 Кбит/сек
Каналы                                   : 6 каналов
Расположение каналов                     : Front: L C R, Side: L R, LFE
Частота                                  : 48,0 КГц
Частота кадров                           : 93,750 кадра/сек (512 spf)
Битовая глубина                          : 24 бит
Метод сжатия                             : С потерями
Размер потока                            : 941 Мбайт (19%)
Заголовок                                : [Original]
Язык                                     : English
Default                                  : Нет
Forced                                   : Нет

Текст #1
Идентификатор                            : 4
Формат                                   : UTF-8
Идентификатор кодека                     : S_TEXT/UTF8
Идентификатор кодека/Информация          : UTF-8 Plain Text
Продолжительность                        : 1 ч. 26 м.
Битрейт                                  : 88 бит/сек
Count of elements                        : 1089
Размер потока                            : 55,8 Кбайт (0%)
Заголовок                                : Full
Язык                                     : Russian
Default                                  : Нет
Forced                                   : Нет

Текст #2
Идентификатор                            : 5
Формат                                   : UTF-8
Идентификатор кодека                     : S_TEXT/UTF8
Идентификатор кодека/Информация          : UTF-8 Plain Text
Продолжительность                        : 1 ч. 26 м.
Битрейт                                  : 46 бит/сек
Count of elements                        : 1074
Размер потока                            : 29,4 Кбайт (0%)
Заголовок                                : Full
Язык                                     : English
Default                                  : Нет
Forced                                   : Нет

Текст #3
Идентификатор                            : 6
Формат                                   : UTF-8
Идентификатор кодека                     : S_TEXT/UTF8
Идентификатор кодека/Информация          : UTF-8 Plain Text
Продолжительность                        : 1 ч. 26 м.
Битрейт                                  : 55 бит/сек
Count of elements                        : 1354
Размер потока                            : 35,2 Кбайт (0%)
Заголовок                                : SDH
Язык                                     : English
Default                                  : Нет
Forced                                   : Нет

Меню
00:00:00.000                             : en:Chapter 01
00:10:10.693                             : en:Chapter 02
00:21:05.347                             : en:Chapter 03
00:33:15.452                             : en:Chapter 04
00:43:32.193                             : en:Chapter 05
00:53:08.185                             : en:Chapter 06
01:04:37.999                             : en:Chapter 07
01:13:56.599                             : en:Chapter 08
01:23:35.010                             : en:Chapter 09



Скриншоты:
[+] Всего файлов в раздаче - 1:
Reign.of.the.Supermen.2019.BDRip(1080p).OlLanDGroup.mkv4.74 GB

Показать еще раздачи по запросу господство:
2019-03-03 U Господство Суперменов / Reign of the Supermen (2019) HDRip от MegaPeer | HDRezka Studio 1.35 GB ↑ 49 ↓ 13
2019-01-31 U Господство Суперменов / Reign of the Supermen (2019) WEB-DL 1080p | ZM-SHOW 3.24 GB ↑ 43 ↓ 13
2019-01-27 U Господство Суперменов / Reign of the Supermen (2019) WEB-DLRip 1080p | Flarrow Films 3.33 GB ↑ 60 ↓ 12
2018-04-09 U Михайлов Дем - Мир Вальдиры. Господство Клана Неспящих [1-8 книги] (2016-2018) MP3 2.04 GB ↑ 581 ↓ 32
2017-12-18 U Михайлов Дем - Мир Вальдиры. Господство Клана Неспящих 6. Запределье (2017) MP3 284.08 MB ↑ 206 ↓ 21
2017-05-28 U Три икса: Мировое господство / xXx: Return of Xander Cage (2016) HDRip от Scarabey | Лицензия 1.45 GB ↑ 287 ↓ 54
2017-05-25 U Три икса: Мировое господство / xXx: Return of Xander Cage (2017) BDRip 1080p от New-Team & qqss44 | Лицензия 7.93 GB ↑ 527 ↓ 46

Отзывы
Зарегистрируйтесь чтобы добавить комментарий.
Обратная связь
Copyleft ©