↑↓Torrent.by
Поиск
Логин: Регистрация
Пароль: Восстановить пароль
Загрузка...

Волки и Овцы: Ход свиньёй (2018) WEB-DL 1080p | iTunes

Скачать volki-i-ovcy-hod-sviney-2018-web-dl-1080p-itunes.torrent
U Магнитная ссылка Размер: 2.61 GB Раздают: 277 Качают: 139 Добавлен: 2019-02-27 11:44:43
Волки и Овцы: Ход свиньёй (2018) WEB-DL 1080p | iTunes

Название: Волки и Овцы: Ход свиньёй
Год выпуска: 2018
Жанр:  Мультфильм, семейный, комедия, приключения
Режиссер: Владимир Николаев
В ролях: Елизавета Боярская, Максим Матвеев, Галина Корнева, Антон Юрьев, Алексей Сигаев, Даниил Эльдаров

О фильме: В спокойной и размеренной жизни объединенного городка волков и овец появляются неожиданные гости — песец и маленькая овечка. Никто не ожидал, что они принесут с собой смертельную опасность, преодолеть которую можно лишь всем вместе. Ведь только сообща решаются большие проблемы и серьезные задачи — в единстве сила!

Выпущено: Россия, Кинокомпания CTB, Wizart Animation
Продолжительность: 01:11:45
Перевод: Не требуется

Файл
Качество: WEB-DL 1080p
Контейнер: MKV
Видео: MPEG-4 AVC, 1920x804, 4724 kbps, 25.000 fps
Аудио: Русский: AC3, 6 ch, 384 kbps - iTunes
Субтитры: Нет

Релиз:


[+] MediaInfo
General
Unique ID                                : 253585526810830193784384340085470751855 (0xBEC6CBC3B1ECBE008C993AC2824D6C6F)
Complete name                            : Volki.Ovcy.Hod.Svinjey.2018.WEB-DL.1080p.BLUEBIRD.mkv
Format                                   : Matroska
Format version                           : Version 4 / Version 2
File size                                : 2.61 GiB
Duration                                 : 1 h 11 min
Overall bit rate                         : 5 212 kb/s
Movie name                               : Volki.Ovcy.Hod.Svinjey.2018.WEB-DL.1080p.BLUEBIRD
Encoded date                             : UTC 2019-02-26 14:33:58
Writing application                      : mkvmerge v6.9.1 ('Blue Panther') 32bit built on Apr 18 2014 18:15:44
Writing library                          : libebml v1.3.0 + libmatroska v1.4.1
Cover                                    : Yes
Attachments                              : cover.png

Video
ID                                       : 1
Format                                   : AVC
Format/Info                              : Advanced Video Codec
Format profile                           : High@L4
Format settings, CABAC                   : Yes
Format settings, RefFrames               : 5 frames
Codec ID                                 : V_MPEG4/ISO/AVC
Duration                                 : 1 h 11 min
Bit rate                                 : 4 724 kb/s
Width                                    : 1 920 pixels
Height                                   : 804 pixels
Display aspect ratio                     : 2.40:1
Frame rate mode                          : Constant
Frame rate                               : 25.000 FPS
Color space                              : YUV
Chroma subsampling                       : 4:2:0
Bit depth                                : 8 bits
Scan type                                : Progressive
Bits/(Pixel*Frame)                       : 0.122
Stream size                              : 2.37 GiB (91%)
Title                                    : Volki.Ovcy.Hod.Svinjey.2018.WEB-DL.1080p.BLUEBIRD
Language                                 : English
Default                                  : Yes
Forced                                   : No
Color range                              : Limited
Color primaries                          : BT.709
Transfer characteristics                 : BT.709
Matrix coefficients                      : BT.709

Audio
ID                                       : 2
Format                                   : AC-3
Format/Info                              : Audio Coding 3
Format settings, Endianness              : Big
Codec ID                                 : A_AC3
Duration                                 : 1 h 11 min
Bit rate mode                            : Constant
Bit rate                                 : 384 kb/s
Channel(s)                               : 6 channels
Channel positions                        : Front: L C R, Side: L R, LFE
Sampling rate                            : 48.0 kHz
Frame rate                               : 31.250 FPS (1536 SPF)
Bit depth                                : 16 bits
Compression mode                         : Lossy
Stream size                              : 197 MiB (7%)
Title                                    : DD 5.1 @ 384 kbps (iTunes)
Language                                 : Russian
Service kind                             : Complete Main
Default                                  : Yes
Forced                                   : No

Menu
00:00:00.000                             : en:Глава 1
00:04:54.960                             : en:Глава 2
00:11:02.200                             : en:Глава 3
00:16:08.080                             : en:Глава 4
00:22:05.560                             : en:Глава 5
00:26:49.200                             : en:Глава 6
00:30:52.080                             : en:Глава 7
00:34:50.320                             : en:Глава 8
00:40:21.120                             : en:Глава 9
00:45:29.760                             : en:Глава 10
00:51:37.320                             : en:Глава 11
00:56:52.720                             : en:Глава 12
01:02:29.080                             : en:Глава 13



Скриншоты:
[+] Всего файлов в раздаче - 1:
Volki.Ovcy.Hod.Svinjey.2018.WEB-DL.1080p.BLUEBIRD.mkv2.61 GB

Показать еще раздачи по запросу волки:
2018-10-21 U Инран: Волчья бригада / Люди Волки: Цепные Псы Режима / Inrang (2018) WEB-DL 1080p | Sub 5.59 GB ↑ 310 ↓ 80
2018-07-31 U Волки (2009) WEB-DLRip от R.G.Resident 1.46 GB ↑ 310 ↓ 56
2017-08-29 U Волки / Wolves (2016) WEB-DLRip от MegaPeer | iTunes 746.20 MB ↑ 60 ↓ 17
2017-08-29 U Волки / Wolves (2016) WEB-DLRip от MegaPeer | iTunes 1.46 GB ↑ 33 ↓ 34
2017-08-29 U Волки / Wolves (2016) WEB-DLRip | iTunes 1.37 GB ↑ 61 ↓ 24
2017-08-29 U Волки / Wolves (2016) WEB-DL 1080р от ExKinoRay | iTunes 4.02 GB ↑ 49 ↓ 29
2017-04-26 U Волки у двери / Wolves at the Door (2016) WEB-DL 720p | L1 2.48 GB ↑ 90 ↓ 30

Отзывы
Зарегистрируйтесь чтобы добавить комментарий.
Обратная связь
Copyleft ©