↑↓Torrent.by
Поиск
Логин: Регистрация
Пароль: Восстановить пароль
Загрузка...

Бабушка легкого поведения 2 (2018) WEB-DL 1080p

Скачать babushka-legkogo-povedeniya-2-2018-web-dl-1080p.torrent
U Магнитная ссылка Размер: 3.04 GB Раздают: 119 Качают: 207 Добавлен: 2019-02-28 07:46:28
Бабушка легкого поведения 2 (2018) WEB-DL 1080p

Год выпуска: 2018
В ролях: Александр Ревва, Глюк'ozа, Марина Федункив, Дмитрий Нагиев, Евгений Герчаков, Елена Валюшкина, Наталья Бардо, Михаил Галустян, Роман Курцын, Мария Горбань, Ирина Бякова, Андрей Родной, Артемий Падалка, Филипп Киркоров, Влад Соколовский
Режиссёр: Марюс Вайсберг

О фильме
В продолжении популярной комедии зрителей вновь ждет встреча с обаятельным аферистом Сашей Рубенштейном и командой пенсионеров, которые теперь перебрались в Москву. Но их счастливой жизни приходит конец, когда банк, в котором хранятся все сбережения стариков, банкротит беспринципный олигарх Бородин. Саша и «ОПГ — организованная пенсионная группировка» опять объединяются, чтобы отомстить обидчику.

Страна: Россия
Жанр:  комедия
Продолжительность: 01:22:09
Перевод: Не требуется
Субтитры: Нет

Качество: WEB-DL 1080p
Формат: MKV
Видео кодек: MPEG-4 AVC
Аудио кодек: AC-3
Видео: MPEG-4 AVC, ~ 5099 Кбит/с, 1920x1080, 25,000 fps
Аудио: AC-3, 2 ch, 192 Кбит/с, 48,0 KHz [RUS]

***Примечание: Релиз без рекламы!


[+] M/I
Общее
Уникальный идентификатор                 : 183163323423748703561150622218280833022 (0x89CBF911E8D8C65AA5D2357EB76D0FFE)
Полное имя                               : D:Бабушка лёгкого поведения 2Babushka.legkogo.povedeniya-2.2019.WEB-DL.(1080p).Getty.mkv
Формат                                   : Matroska
Версия формата                           : Version 4 / Version 2
Размер файла                             : 3,04 Гбайт
Продолжительность                        : 1 ч. 22 м.
Общий поток                              : 5293 Кбит/сек
Название фильма                          : Babushka.legkogo.povedeniya-2.2019.WEB-DL.(1080p).Getty
Дата кодирования                         : UTC 2019-02-28 00:38:55
Программа кодирования                    : mkvmerge v7.8.0 ('River Man') 32bit built on Mar 27 2015 16:18:02
Библиотека кодирования                   : libebml v1.3.1 + libmatroska v1.4.2

Видео
Идентификатор                            : 1
Формат                                   : AVC
Формат/Информация                        : Advanced Video Codec
Профиль формата                          : High@L4
Параметр CABAC формата                   : Да
Параметр ReFrames формата                : 4 кадра
Идентификатор кодека                     : V_MPEG4/ISO/AVC
Продолжительность                        : 1 ч. 22 м.
Битрейт                                  : 5099 Кбит/сек
Ширина                                   : 1920 пикселей
Высота                                   : 1080 пикселей
Соотношение сторон                       : 16:9
Режим частоты кадров                     : Постоянный
Частота кадров                           : 25,000 кадров/сек
Цветовое пространство                    : YUV
Субдискретизация насыщенности            : 4:2:0
Битовая глубина                          : 8 бит
Тип развёртки                            : Прогрессивная
Бит/(Пиксели*Кадры)                      : 0.098
Размер потока                            : 2,93 Гбайт (96%)
Default                                  : Да
Forced                                   : Нет

Аудио
Идентификатор                            : 2
Формат                                   : AC-3
Формат/Информация                        : Audio Coding 3
Параметр Endianness формата              : Big
Идентификатор кодека                     : A_AC3
Продолжительность                        : 1 ч. 22 м.
Вид битрейта                             : Постоянный
Битрейт                                  : 192 Кбит/сек
Каналы                                   : 2 канала
Расположение каналов                     : Front: L R
Частота                                  : 48,0 КГц
Частота кадров                           : 31,250 кадров/сек (1536 spf)
Битовая глубина                          : 16 бит
Метод сжатия                             : С потерями
Размер потока                            : 113 Мбайт (4%)
ServiceKind                       : Complete Main
Default                                  : Да
Forced                                   : Нет



Скриншоты:
[+] Всего файлов в раздаче - 1:
Babushka.legkogo.povedeniya-2.2019.WEB-DL.(1080p).Getty.mkv3.04 GB

Показать еще раздачи по запросу бабушка:
2019-03-03 U Бабушка легкого поведения 2 (2019) WEB-DLRip-AVC от Files-x 1.36 GB ↑ 105 ↓ 72
2019-03-02 U Бабушка легкого поведения 2 (2019) WEB-DLRip от Scarabey 1.38 GB ↑ 124 ↓ 53
2019-03-01 U Бабушка легкого поведения 2 (2019) WEB-DLRip от GeneralFilm 744.87 MB ↑ 78 ↓ 33
2019-03-01 U Бабушка легкого поведения 2 (2019) WEB-DLRip от Generalfilm | КПК 311.66 MB ↑ 45 ↓ 17
2019-03-01 U Бабушка легкого поведения 2 (2019) WEB-DLRip-AVC от OlLanDGroup 1К743.50 MB ↑ 143 ↓ 18
2019-02-28 U Бабушка легкого поведения 2 (2019) WEB-DL 720p 1.58 GB ↑ 253 ↓ 160
2019-02-28 U Бабушка легкого поведения 2 (2019) WEB-DLRip от MegaPeer 1.37 GB ↑ 1302 ↓ 686

Отзывы
Зарегистрируйтесь чтобы добавить комментарий.
Обратная связь
Copyleft ©