↑↓Torrent.by
Поиск
Логин: Регистрация
Пароль: Восстановить пароль
Загрузка...

Завод (2018) WEBRip 1080p

Скачать zavod-2018-webrip-1080p.torrent
U Магнитная ссылка Размер: 4.93 GB Раздают: 1220 Качают: 927 Добавлен: 2019-02-28 12:19:20
Завод (2018) WEBRip 1080p

Название: Завод
Год выпуска: 2018
Жанр:  Криминал, драма, триллер
Режиссёр: Юрий Быков
В ролях: Денис Шведов, Владислав Абашин, Андрей Смоляков, Александр Бухаров, Дмитрий Куличков, Иван Янковский, Юрий Тарасов, Пётр Баранчеев, Александр Воробьёв, Алексей Комашко, Кирилл Полухин, Александр Логинов, Сергей Сосновский, Борис Невзоров, Олег Алмазов, Александр Баширов, Алексей Фаддеев, Илья Соколовский

Описание: Прямо посреди дня из своего «мерса» похищен местный олигарх Калугин. Неизвестные в балаклавах потребовали за него большой выкуп. Отвезти деньги берётся глава личной охраны бизнесмена по кличке Туман. Его вооружённые до зубов «спецы» приезжают ночью на завод Калугина, где теперь босса держат в заложниках. Они пока не знают, что те другие, забаррикадировавшиеся в цехе — это местные рабочие во главе с бывшим спецназовцем по прозвищу Седой. Полгода без зарплаты и предстоящее банкротство завода толкнули их на отчаянный шаг. Чтобы вытащить своего хозяина, «спецы» не остановятся ни перед чем. Но в отличие от них «работягам» больше нечего терять.

Страна: Россия, Франция, Армения
Студия: START, Инвада фильм
Продолжительность: 01:46:12
Перевод: Не требуется

Файл
Качество: WEBRip 1080p
Формат: MKV
Видео: MPEG-4 AVC, 16:9, 1920x1080, 23.976 fps, 6446 kbps
Аудио: Russian: AC3, 2 ch, 192 kbps, 16 bits, 48.0 KHz - Оригинал
Субтитры: Нет


[+] MediaInfo
General
Unique ID : 209045490787320620055448115725385754665 (0x9D44B27184882C8E8CF3C627DFDE6829)
Complete name : D:Zavod.2018.WEB-DL.(1080p).Getty.mkv
Format : Matroska
Format version : Version 4 / Version 2
File size : 4.93 GiB
Duration : 1 h 46 min
Overall bit rate : 6 640 kb/s
Movie name : Zavod.2018.WEB-DL.(1080p).Getty
Encoded date : UTC 2019-02-28 01:55:31
Writing application : mkvmerge v7.8.0 ('River Man') 32bit built on Mar 27 2015 16:18:02
Writing library : libebml v1.3.1 + libmatroska v1.4.2

Video
ID : 1
Format : AVC
Format/Info : Advanced Video Codec
Format profile : High@L4
Format settings : CABAC / 4 Ref Frames
Format settings, CABAC : Yes
Format settings, ReFrames : 4 frames
Codec ID : V_MPEG4/ISO/AVC
Duration : 1 h 46 min
Bit rate : 6 446 kb/s
Width : 1 920 pixels
Height : 1 080 pixels
Display aspect ratio : 16:9
Frame rate mode : Constant
Frame rate : 23.976 (24000/1001) FPS
Color space : YUV
Chroma subsampling : 4:2:0
Bit depth : 8 bits
Scan type : Progressive
Bits/(Pixel*Frame) : 0.130
Stream size : 4.78 GiB (97%)
Default : Yes
Forced : No

Audio
ID : 2
Format : AC-3
Format/Info : Audio Coding 3
Codec ID : A_AC3
Duration : 1 h 46 min
Bit rate mode : Constant
Bit rate : 192 kb/s
Channel(s) : 2 channels
Channel positions : Front: L R
Sampling rate : 48.0 kHz
Frame rate : 31.250 FPS (1536 SPF)
Bit depth : 16 bits
Compression mode : Lossy
Stream size : 146 MiB (3%)
Service kind : Complete Main
Default : Yes
Forced : No



Скриншоты:
[+] Всего файлов в раздаче - 1:
Zavod.2018.WEB-DL.(1080p).Getty.mkv4.93 GB

Показать еще раздачи по запросу завод:
2019-03-17 U Завод (2018) WEB-DLRip-AVC от OlLanDGroup | iTunes 1.68 GB ↑ 177 ↓ 38
2019-03-15 U Завод (2018) WEB-DLRip от OlLanDGroup | iTunes 745.45 MB ↑ 63 ↓ 8
2019-03-15 U Завод (2018) WEB-DLRip от ExKinoRay | iTunes 1.46 GB ↑ 47 ↓ 19
2019-03-14 U Завод (2018) WEB-DL 720p | iTunes 2.28 GB ↑ 97 ↓ 31
2019-03-14 U Завод (2018) WEB-DLRip от MegaPeer | iTunes 1.46 GB ↑ 116 ↓ 54
2019-03-14 U Завод (2018) WEB-DL 1080p | iTunes 4.25 GB ↑ 89 ↓ 42
2019-03-03 U Завод (2018) WEBRip от ExKinoRay 1.46 GB ↑ 102 ↓ 35

Отзывы
Зарегистрируйтесь чтобы добавить комментарий.
Обратная связь
Copyleft ©