↑↓Torrent.by
Поиск
Логин: Регистрация
Пароль: Восстановить пароль
Загрузка...

Завод (2018) WEBRip 720p

Скачать zavod-2018-webrip-720p.torrent
U Магнитная ссылка Размер: 3.42 GB Раздают: 185 Качают: 243 Добавлен: 2019-02-28 12:19:33
Завод (2018) WEBRip 720p

Название: Завод
Год выпуска: 2018
Жанр:  Криминал, драма, триллер
Режиссёр: Юрий Быков
В ролях: Денис Шведов, Владислав Абашин, Андрей Смоляков, Александр Бухаров, Дмитрий Куличков, Иван Янковский, Юрий Тарасов, Пётр Баранчеев, Александр Воробьёв, Алексей Комашко, Кирилл Полухин, Александр Логинов, Сергей Сосновский, Борис Невзоров, Олег Алмазов, Александр Баширов, Алексей Фаддеев, Илья Соколовский

Описание: Прямо посреди дня из своего «мерса» похищен местный олигарх Калугин. Неизвестные в балаклавах потребовали за него большой выкуп. Отвезти деньги берётся глава личной охраны бизнесмена по кличке Туман. Его вооружённые до зубов «спецы» приезжают ночью на завод Калугина, где теперь босса держат в заложниках. Они пока не знают, что те другие, забаррикадировавшиеся в цехе — это местные рабочие во главе с бывшим спецназовцем по прозвищу Седой. Полгода без зарплаты и предстоящее банкротство завода толкнули их на отчаянный шаг. Чтобы вытащить своего хозяина, «спецы» не остановятся ни перед чем. Но в отличие от них «работягам» больше нечего терять.

Страна: Россия, Франция, Армения
Студия: START, Инвада фильм
Продолжительность: 01:46:12
Перевод: Не требуется

Файл
Качество: WEBRip 720p
Формат: MKV
Видео: MPEG-4 AVC, 16:9, 1280x720, 23.976 fps, 4414 kbps
Аудио: Russian: AC3, 2 ch, 192 kbps, 16 bits, 48.0 KHz - Оригинал
Субтитры: Нет


[+] MediaInfo
Общее
Уникальный идентификатор                 : 8835919525930335733549872070762499717 (0x6A5BC779C685021919D824530690E85)
Полное имя                               : D:1Завод (2018).mkv
Формат                                   : Matroska
Версия формата                           : Version 4
Размер файла                             : 3,42 Гбайт
Продолжительность                        : 1 ч. 46 м.
Общий поток                              : 4608 Кбит/сек
Дата кодирования                         : UTC 2019-02-28 07:47:15
Программа кодирования                    : mkvmerge v31.0.0 ('Dolores In A Shoestand') 64-bit
Библиотека кодирования                   : libebml v1.3.6 + libmatroska v1.4.9 / Lavf57.71.100

Видео
Идентификатор                            : 1
Формат                                   : AVC
Формат/Информация                        : Advanced Video Codec
Профиль формата                          : Main@L3.1
Настройки формата                        : CABAC / 1 Ref Frames
Параметр CABAC формата                   : Да
Параметр RefFrames формата               : 1 кадр
Идентификатор кодека                     : V_MPEG4/ISO/AVC
Продолжительность                        : 1 ч. 46 м.
Битрейт                                  : 4414 Кбит/сек
Ширина                                   : 1280 пикселей
Высота                                   : 720 пикселей
Соотношение сторон                       : 16:9
Режим частоты кадров                     : Постоянный
Частота кадров                           : 23,976 кадра/сек
Цветовое пространство                    : YUV
Субдискретизация насыщенности            : 4:2:0
Битовая глубина                          : 8 бит
Тип развёртки                            : Прогрессивная
Бит/(Пиксели*Кадры)                      : 0.200
Размер потока                            : 3,27 Гбайт (96%)
Default                                  : Да
Forced                                   : Нет

Аудио
Идентификатор                            : 2
Формат                                   : AC-3
Формат/Информация                        : Audio Coding 3
Коммерческое название                    : Dolby Digital
Идентификатор кодека                     : A_AC3
Продолжительность                        : 1 ч. 46 м.
Вид битрейта                             : Постоянный
Битрейт                                  : 192 Кбит/сек
Каналы                                   : 2 канала
Channel layout                           : L R
Частота                                  : 48,0 КГц
Частота кадров                           : 31,250 кадров/сек (1536 SPF)
Битовая глубина                          : 16 бит
Метод сжатия                             : С потерями
Размер потока                            : 146 Мбайт (4%)
Default                                  : Да
Forced                                   : Нет



Скриншоты:
[+] Всего файлов в раздаче - 1:
Завод (2018).mkv3.42 GB

Показать еще раздачи по запросу завод:
2019-03-17 U Завод (2018) WEB-DLRip-AVC от OlLanDGroup | iTunes 1.68 GB ↑ 177 ↓ 38
2019-03-15 U Завод (2018) WEB-DLRip от OlLanDGroup | iTunes 745.45 MB ↑ 62 ↓ 7
2019-03-15 U Завод (2018) WEB-DLRip от ExKinoRay | iTunes 1.46 GB ↑ 45 ↓ 18
2019-03-14 U Завод (2018) WEB-DL 720p | iTunes 2.28 GB ↑ 89 ↓ 31
2019-03-14 U Завод (2018) WEB-DLRip от MegaPeer | iTunes 1.46 GB ↑ 116 ↓ 54
2019-03-14 U Завод (2018) WEB-DL 1080p | iTunes 4.25 GB ↑ 87 ↓ 41
2019-03-03 U Завод (2018) WEBRip от ExKinoRay 1.46 GB ↑ 97 ↓ 33

Отзывы
Зарегистрируйтесь чтобы добавить комментарий.
Обратная связь
Copyleft ©