↑↓Torrent.by
Поиск
Логин: Регистрация
Пароль: Восстановить пароль
Загрузка...

Бабушка легкого поведения 2 (2019) WEB-DLRip-AVC от OlLanDGroup

Скачать babushka-legkogo-povedeniya-2-2019-web-dlrip-avc-ot-ollandgroup.torrent
U Магнитная ссылка Размер: 743.50 MB Раздают: 143 Качают: 18 Добавлен: 2019-03-01 03:35:38
Бабушка легкого поведения 2 (2019) WEB-DLRip-AVC от OlLanDGroup

Бабушка легкого поведения 2

Год выпуска: 2019
Страна: Россия
Производство: Войс Медиа, Vice Films
Жанр:  комедия

Режиссёр: Марюс Вайсберг
В ролях: Александр Ревва, Глюк'ozа, Марина Федункив, Дмитрий Нагиев, Евгений Герчаков, Елена Валюшкина, Наталья Бардо, Михаил Галустян, Роман Курцын, Мария Горбань, Ирина Бякова, Андрей Родной, Артемий Падалка, Филипп Киркоров, Влад Соколовский

Перевод: Не требуется
Реклама: Отсутствует

Описание: В продолжении популярной комедии зрителей вновь ждет встреча с обаятельным аферистом Сашей Рубенштейном и командой пенсионеров, которые теперь перебрались в Москву. Но их счастливой жизни приходит конец, когда банк, в котором хранятся все сбережения стариков, банкротит беспринципный олигарх Бородин. Саша и «ОПГ — организованная пенсионная группировка» опять объединяются, чтобы отомстить обидчику.

Качество: WEB-DLRip-AVC
Продолжительность: 01:22:09

Формат: MKV
Видео кодек: MPEG-4 AVC
Аудио кодек: AC3
Видео: 800x450 (16:9), 25,000 fps, x264 ~1074 kbps avg, 0.119 bit/pixel
Аудио: 48 kHz, AC3, 2/0 Front: L R ch, ~ 192.00 kbps avg | RUS

Дата премьеры (РФ): 24 января 2019, «Централ Партнершип»

Релиз: Rip by:


[+] MediaInfo

Общее
Уникальный идентификатор                 : 13751694901259751270103732264174731091 (0xA587AE7CF626373A530CADA63B9BF53)
Полное имя                               : D:TempBabushka.legkogo.povedeniya-2.2019. WEB-DLRip(AVC).OlLanDGroup.mkv
Формат                                   : Matroska
Версия формата                           : Version 4 / Version 2
Размер файла                             : 744 Мбайт
Продолжительность                        : 1 ч. 22 м.
Общий поток                              : 1265 Кбит/сек
Название фильма                          : Babushka.legkogo.povedeniya-2.2019. Rip by Vovan366
Дата кодирования                         : UTC 2019-02-28 14:20:57
Программа кодирования                    : mkvmerge v28.2.0 ('The Awakening') 64-bit
Библиотека кодирования                   : libebml v1.3.6 + libmatroska v1.4.9
DURATION                                 : 01:22:09.856000000
NUMBER_OF_FRAMES                         : 154058
NUMBER_OF_BYTES                          : 118316544
_STATISTICS_WRITING_APP                  : mkvmerge v28.2.0 ('The Awakening') 64-bit
_STATISTICS_WRITING_DATE_UTC             : 2019-02-28 14:20:57
_STATISTICS_TAGS                         : BPS DURATION NUMBER_OF_FRAMES NUMBER_OF_BYTES
Attachment                               : Yes

Видео
Идентификатор                            : 1
Формат                                   : AVC
Формат/Информация                        : Advanced Video Codec
Профиль формата                          : High@L4.1
Параметр CABAC формата                   : Да
Параметр ReFrames формата                : 9 кадров
Идентификатор кодека                     : V_MPEG4/ISO/AVC
Продолжительность                        : 1 ч. 22 м.
Битрейт                                  : 1074 Кбит/сек
Ширина                                   : 800 пикселей
Высота                                   : 450 пикселей
Соотношение сторон                       : 16:9
Режим частоты кадров                     : Постоянный
Частота кадров                           : 25,000 кадров/сек
Цветовое пространство                    : YUV
Субдискретизация насыщенности            : 4:2:0
Битовая глубина                          : 8 бит
Тип развёртки                            : Прогрессивная
Бит/(Пиксели*Кадры)                      : 0.119
Размер потока                            : 616 Мбайт (83%)
Заголовок                                : Babushka.legkogo.povedeniya-2.2019. WEB-DLRip(AVC).OlLanDGroup
Библиотека кодирования                   : x264 core 146 r2538 121396c
Настройки программы                      : cabac=1 / ref=9 / deblock=1:-3:-3 / analyse=0x3:0x133 / me=umh / subme=11 / psy=1 / psy_rd=1.00:0.00 / mixed_ref=1 / me_range=32 / chroma_me=1 / trellis=2 / 8x8dct=1 / cqm=0 / deadzone=21,11 / fast_pskip=0 / chroma_qp_offset=-2 / threads=6 / lookahead_threads=1 / sliced_threads=0 / nr=0 / decimate=0 / interlaced=0 / bluray_compat=0 / constrained_intra=0 / bframes=10 / b_pyramid=2 / b_adapt=1 / b_bias=0 / direct=3 / weightb=1 / open_gop=0 / weightp=2 / keyint=240 / keyint_min=24 / scenecut=40 / intra_refresh=0 / rc_lookahead=40 / rc=2pass / mbtree=0 / bitrate=1074 / ratetol=1.0 / qcomp=0.60 / qpmin=0 / qpmax=69 / qpstep=4 / cplxblur=20.0 / qblur=0.5 / vbv_maxrate=50000 / vbv_bufsize=52500 / nal_hrd=none / filler=0 / ip_ratio=1.40 / pb_ratio=1.30 / aq=1:1.00
Язык                                     : Russian
Default                                  : Да
Forced                                   : Нет

Аудио
Идентификатор                            : 2
Формат                                   : AC-3
Формат/Информация                        : Audio Coding 3
Расширение режима                        : CM (complete main)
Параметр Endianness формата              : Big
Идентификатор кодека                     : A_AC3
Продолжительность                        : 1 ч. 22 м.
Вид битрейта                             : Постоянный
Битрейт                                  : 192 Кбит/сек
Каналы                                   : 2 канала
Расположение каналов                     : Front: L R
Частота                                  : 48,0 КГц
Битовая глубина                          : 16 бит
Метод сжатия                             : С потерями
Размер потока                            : 113 Мбайт (15%)
Язык                                     : Russian
Default                                  : Да
Forced                                   : Нет




Скриншоты:
[+] Всего файлов в раздаче - 1:
Babushka.legkogo.povedeniya-2.2019. WEB-DLRip(AVC).OlLanDGroup.mkv743.50 MB

Показать еще раздачи по запросу бабушка:
2019-03-03 U Бабушка легкого поведения 2 (2019) WEB-DLRip-AVC от Files-x 1.36 GB ↑ 105 ↓ 72
2019-03-02 U Бабушка легкого поведения 2 (2019) WEB-DLRip от Scarabey 1.38 GB ↑ 124 ↓ 53
2019-03-01 U Бабушка легкого поведения 2 (2019) WEB-DLRip от GeneralFilm 744.87 MB ↑ 79 ↓ 33
2019-03-01 U Бабушка легкого поведения 2 (2019) WEB-DLRip от Generalfilm | КПК 311.66 MB ↑ 45 ↓ 17
2019-02-28 U Бабушка легкого поведения 2 (2019) WEB-DL 720p 1.58 GB ↑ 253 ↓ 160
2019-02-28 U Бабушка легкого поведения 2 (2019) WEB-DLRip от MegaPeer 1.37 GB ↑ 1302 ↓ 686
2019-02-28 U Бабушка легкого поведения 2 (2018) WEB-DL 1080p 3.04 GB ↑ 120 ↓ 207

Отзывы
andrenarik
Спасибо большое за фильм в компакт-размере!

Зарегистрируйтесь чтобы добавить комментарий.
Обратная связь
Copyleft ©