↑↓Torrent.by
Поиск
Логин: Регистрация
Пароль: Восстановить пароль
Загрузка...

Бабушка легкого поведения 2 (2019) WEB-DLRip от GeneralFilm

Скачать babushka-legkogo-povedeniya-2-2019-web-dlrip-ot-generalfilm.torrent
U Магнитная ссылка Размер: 744.87 MB Раздают: 79 Качают: 33 Добавлен: 2019-03-01 03:37:26
Бабушка легкого поведения 2 (2019) WEB-DLRip от GeneralFilm

Год выпуска: 2019
Выпущено: Россия, Войс Медиа, Vice Films
Режиссер: Марюс Вайсберг
В ролях: Александр Ревва, Глюк'ozа, Марина Федункив, Дмитрий Нагиев, Евгений Герчаков, Елена Валюшкина, Наталья Бардо, Михаил Галустян, Роман Курцын, Мария Горбань, Ирина Бякова, Андрей Родной, Артемий Падалка, Филипп Киркоров, Влад Соколовский

О фильме: В продолжении популярной комедии зрителей вновь ждет встреча с обаятельным аферистом Сашей Рубенштейном и командой пенсионеров, которые теперь перебрались в Москву. Но их счастливой жизни приходит конец, когда банк, в котором хранятся все сбережения стариков, банкротит беспринципный олигарх Бородин. Саша и «ОПГ — организованная пенсионная группировка» опять объединяются, чтобы отомстить обидчику.

Качество: WEB-DLRip
Видео: XviD build 73, 720x400 (16:9), 25.000 fps, 1130 Kbps (0.157 bit/pixel)
Аудио: 48.0 kHz, MP3, 2/0 ch, 128 kbps
Продолжительность: 01:22:09
Перевод: Не требуется
Cубтитры: нет

Релиз:


[+] MediaInfo

General
Complete name               : D:RazdachiBabushka.Legkogo.Povedenija.2.2019.WEB-DLRip.GeneralFilm.avi
Format                      : AVI
Format/Info                 : Audio Video Interleave
File size                   : 745 MiB
Duration                    : 1 h 22 min
Overall bit rate            : 1 267 kb/s
Writing application         : VirtualDubMod 1.5.10.3 | www.virtualdub-fr.org || (build 2550/release)
Writing library             : VirtualDubMod build 2550/release

Video
ID                          : 0
Format                      : MPEG-4 Visual
Format profile              : Advanced Simple@L5
Format settings             : BVOP1 / Custom Matrix
Format settings, BVOP       : 1
Format settings, QPel       : No
Format settings, GMC        : No warppoints
Format settings, Matrix     : Custom
Codec ID                    : XVID
Codec ID/Hint               : XviD
Duration                    : 1 h 22 min
Bit rate                    : 1 130 kb/s
Width                       : 720 pixels
Height                      : 400 pixels
Display aspect ratio        : 16:9
Frame rate                  : 25.000 FPS
Color space                 : YUV
Chroma subsampling          : 4:2:0
Bit depth                   : 8 bits
Scan type                   : Progressive
Compression mode            : Lossy
Bits/(Pixel*Frame)          : 0.157
Stream size                 : 664 MiB (89%)
Writing library             : XviD 73

Audio
ID                          : 1
Format                      : MPEG Audio
Format version              : Version 1
Format profile              : Layer 3
Codec ID                    : 55
Codec ID/Hint               : MP3
Duration                    : 1 h 22 min
Bit rate mode               : Constant
Bit rate                    : 128 kb/s
Channel(s)                  : 2 channels
Sampling rate               : 48.0 kHz
Frame rate                  : 41.667 FPS (1152 SPF)
Compression mode            : Lossy
Stream size                 : 75.2 MiB (10%)
Alignment                   : Aligned on interleaves
Interleave, duration        : 40  ms (1.00 video frame)
Interleave, preload duratio : 504  ms
Writing library             : LAME3.99r
Encoding settings           : -m s -V 4 -q 2 -lowpass 17 -b 128



Скриншоты:
[+] Всего файлов в раздаче - 1:
Babushka.Legkogo.Povedenija.2.2019.WEB-DLRip.GeneralFilm.avi744.87 MB

Показать еще раздачи по запросу бабушка:
2019-03-03 U Бабушка легкого поведения 2 (2019) WEB-DLRip-AVC от Files-x 1.36 GB ↑ 105 ↓ 72
2019-03-02 U Бабушка легкого поведения 2 (2019) WEB-DLRip от Scarabey 1.38 GB ↑ 124 ↓ 53
2019-03-01 U Бабушка легкого поведения 2 (2019) WEB-DLRip от Generalfilm | КПК 311.66 MB ↑ 45 ↓ 17
2019-03-01 U Бабушка легкого поведения 2 (2019) WEB-DLRip-AVC от OlLanDGroup 1К743.50 MB ↑ 143 ↓ 18
2019-02-28 U Бабушка легкого поведения 2 (2019) WEB-DL 720p 1.58 GB ↑ 253 ↓ 160
2019-02-28 U Бабушка легкого поведения 2 (2019) WEB-DLRip от MegaPeer 1.37 GB ↑ 1302 ↓ 686
2019-02-28 U Бабушка легкого поведения 2 (2018) WEB-DL 1080p 3.04 GB ↑ 120 ↓ 207

Отзывы
Зарегистрируйтесь чтобы добавить комментарий.
Обратная связь
Copyleft ©