↑↓Torrent.by
Поиск
Логин: Регистрация
Пароль: Восстановить пароль
Загрузка...

Снежная Королева: Зазеркалье (2018) WEB-DLRip-AVC от ExKinoRay | iTunes

Скачать snezhnaya-koroleva-zazerkale-2018-web-dlrip-avc-ot-exkinoray-itunes.torrent
U Магнитная ссылка Размер: 1.64 GB Раздают: 59 Качают: 12 Добавлен: 2019-03-03 09:39:34
Снежная Королева: Зазеркалье (2018) WEB-DLRip-AVC от ExKinoRay | iTunes

Информация о фильме
Название: Снежная Королева: Зазеркалье
Жанр: Мультфильм, комедия, приключения, семейный, фэнтези
Режиссер: Алексей Цицилин, Роберт Ленс
В ролях: Лина Иванова, Владимир Зайцев, Ольга Зубкова, Никита Прозоровский, Всеволод Кузнецов, Ляйсан Утяшева, Ирина Безрукова, Надежда Ангарская, Николай Быстров

Описание:  
Могущественный король Харальд чуть не потерял семью из-за Снежной Королевы. Он находит способ очистить мир от волшебства - все обладатели магических способностей отныне заточены в Зазеркалье. Остановить его и не дать сказке навсегда исчезнуть из нашего мира может только Герда. Ведь ее главная сила не в волшебстве, а вере в добро и дружбу. В новом приключении на помощь Герде придут тролли, пираты и даже сама Снежная Королева.

Страна: Россия
Студия: Централ Партнершип, Союзмультфильм, Wizart Animation
Продолжительность: 01:23:21
Язык: Русский | iTunes

БЕЗ КАКОЙ-ЛИБО РЕКЛАМЫ!

Формат: MKV
Качество: WEB-DLRip-AVC
Видео: MPEG-4 AVC, 1024x428 (2.40:1), 25.000 fps, 2437 Kbps, 0.222 bit/pixel
Аудио: 48 kHz, AC3, 5.1, 384 Kbps | RUS |

Релиз:

Автор релиза:


[+] ОтчетМедиаИнфо

General
Unique ID                                : 183445358117445471957728397465530629310 (0x8A024A7435BE12BF9CA8FD967A737CBE)
Complete name                            : D:Снежная.Королева. Зазеркалье.2018.WEB-DLRip.AVC.ExKinoRay.mkv
Format                                   : Matroska
Format version                           : Version 2
File size                                : 1.64 GiB
Duration                                 : 1 h 23 min
Overall bit rate                         : 2 822 kb/s
Movie name                               : Снежная Королева. Зазеркалье 2018 from ExKinoRay
Encoded date                             : UTC 2019-02-28 01:04:10
Writing application                      : mkvmerge v5.6.0 ('Kenya Kane') built on May 27 2012 16:44:04
Writing library                          : libebml v1.2.3 + libmatroska v1.3.0

Video
ID                                       : 1
Format                                   : AVC
Format/Info                              : Advanced Video Codec
Format profile                           : High@L4.1
Format settings, CABAC                   : Yes
Format settings, ReFrames                : 11 frames
Codec ID                                 : V_MPEG4/ISO/AVC
Duration                                 : 1 h 23 min
Bit rate                                 : 2 437 kb/s
Width                                    : 1 024 pixels
Height                                   : 428 pixels
Display aspect ratio                     : 2.40:1
Frame rate mode                          : Constant
Frame rate                               : 25.000 FPS
Color space                              : YUV
Chroma subsampling                       : 4:2:0
Bit depth                                : 8 bits
Scan type                                : Progressive
Bits/(Pixel*Frame)                       : 0.222
Stream size                              : 1.39 GiB (84%)
Title                                    : Enigma
Writing library                          : x264 core 152 r2851 ba24899
Encoding settings                        : cabac=1 / ref=11 / deblock=1:-2:-2 / analyse=0x3:0x113 / me=umh / subme=10 / psy=1 / psy_rd=1.04:0.08 / mixed_ref=1 / me_range=32 / chroma_me=1 / trellis=2 / 8x8dct=1 / cqm=0 / deadzone=21,11 / fast_pskip=0 / chroma_qp_offset=-3 / threads=12 / lookahead_threads=2 / sliced_threads=0 / nr=0 / decimate=0 / interlaced=0 / bluray_compat=0 / constrained_intra=0 / bframes=9 / b_pyramid=2 / b_adapt=2 / b_bias=0 / direct=3 / weightb=1 / open_gop=0 / weightp=2 / keyint=250 / keyint_min=25 / scenecut=40 / intra_refresh=0 / rc=2pass / mbtree=0 / bitrate=2437 / ratetol=1.0 / qcomp=0.60 / qpmin=0 / qpmax=51 / qpstep=4 / cplxblur=20.0 / qblur=0.5 / ip_ratio=1.30 / pb_ratio=1.20 / aq=1:1.00
Language                                 : English
Default                                  : Yes
Forced                                   : No
Color range                              : Limited
Color primaries                          : BT.709
Transfer characteristics                 : BT.709
Matrix coefficients                      : BT.709

Audio
ID                                       : 2
Format                                   : AC-3
Format/Info                              : Audio Coding 3
Mode extension                           : CM (complete main)
Format settings, Endianness              : Big
Codec ID                                 : A_AC3
Duration                                 : 1 h 23 min
Bit rate mode                            : Constant
Bit rate                                 : 384 kb/s
Channel(s)                               : 6 channels
Channel positions                        : Front: L C R, Side: L R, LFE
Sampling rate                            : 48.0 kHz
Frame rate                               : 31.250 FPS (1536 spf)
Compression mode                         : Lossy
Stream size                              : 229 MiB (14%)
Language                                 : Russian
Default                                  : Yes
Forced                                   : No

Menu
00:00:00.000                             : en:Глава 1
00:05:03.080                             : en:Глава 2
00:09:57.400                             : en:Глава 3
00:14:21.240                             : en:Глава 4
00:19:11.960                             : en:Глава 5
00:24:50.720                             : en:Глава 6
00:29:49.640                             : en:Глава 7
00:35:07.519                             : en:Глава 8
00:41:00.359                             : en:Глава 9
00:47:09.719                             : en:Глава 10
00:52:03.119                             : en:Глава 11
00:57:20.158                             : en:Глава 12
01:01:07.598                             : en:Глава 13
01:05:57.637                             : en:Глава 14
01:11:37.156                             : en:Глава 15




Скриншоты:
[+] Всего файлов в раздаче - 1:
Снежная.Королева. Зазеркалье.2018.WEB-DLRip.AVC.ExKinoRay.mkv1.64 GB

Показать еще раздачи по запросу снежная:
2019-02-18 U Снежная Королева: Зазеркалье (2018) WEB-DLRip от Scarabey | iTunes 1.39 GB ↑ 74 ↓ 9
2019-02-15 U Снежная Королева: Зазеркалье (2018) WEB-DL 720p | iTunes 2.55 GB ↑ 91 ↓ 15
2019-02-14 U Снежная Королева: Зазеркалье (2018) WEB-DLRip от GeneralFilm | iTunes 1.37 GB ↑ 105 ↓ 23
2019-02-14 U Снежная Королева: Зазеркалье (2018) WEB-DL 1080p | iTunes 1К2.86 GB ↑ 709 ↓ 144
2019-02-13 U Снежная Королева: Зазеркалье (2018) WEB-DLRip от MegaPeer | iTunes 1.46 GB ↑ 543 ↓ 235
2019-02-13 U Снежная Королева: Зазеркалье (2018) WEB-DLRip от GeneralFilm | iTunes 1К745.05 MB ↑ 156 ↓ 59
2017-12-24 U Сборник - Снежная новогодняя история (1956-2017) [24CD] MP3 от DON Music 1К4.16 GB ↑ 45 ↓ 118

Отзывы
Зарегистрируйтесь чтобы добавить комментарий.
Обратная связь
Copyleft ©