↑↓Torrent.by
Поиск
Логин: Регистрация
Пароль: Восстановить пароль
Загрузка...

Спасти Ленинград (2019) WEB-DLRip | iTunes

Скачать spasti-leningrad-2019-web-dlrip-itunes.torrent
U Магнитная ссылка Размер: 1.46 GB Раздают: 921 Качают: 563 Добавлен: 2019-03-04 06:42:48
Спасти Ленинград (2019) WEB-DLRip | iTunes

Название: Спасти Ленинград
Год выхода: 2019
Жанр: Драма, военный
Страна: Россия
Перевод: Не требуется
Продолжительность: 01:37:13
Режиссер: Алексей Козлов
В ролях: Мария Мельникова, Андрей Миронов-Удалов, Гела Месхи, Анастасия Мельникова, Валерий Дегтярь, Марина Комарова, Виталий Кищенко, Алексей Шевченков, Борис Щербаков, Инга Оболдина и др.

О фильме: Сентябрь 1941 года. Юные влюбленные Костя и Настя волею обстоятельств оказываются на барже, которая должна вывезти людей из блокадного Ленинграда. Ночью судно попадает в шторм и терпит бедствие, на месте трагедии первыми оказываются вовсе не спасатели, а вражеские самолеты.

Файл
Формат: AVI
Качество: WEB-DLRip
Видео: Xvid 73, 720x304, ~1748 kbps, 24,000 fps
Звук: русский, AC3, 5.1 ch, 48 kHz, 384 kbps | iTunes
Субтитры: нет

Релиз:


[+] MI
General
Полное имя                               : E:TorrentSpastiLeningradWEBDLRip.avi
Формат                                   : AVI
Формат/Информация                        : Audio Video Interleave
Профиль формата                          : OpenDML
Размер файла                             : 1.46 GiB
Продолжительность                        : 1 h 37 min
Общий поток                              : 2 144 kb/s
Программа кодирования                    : XviD4PSP 6.0 / 54.27.101

Video
Идентификатор                            : 0
Формат                                   : MPEG-4 Visual
Профиль формата                          : Advanced Simple@L5
Настройки формата                        : BVOP2 / Custom Matrix
Параметр BVOP формата                    : 2
Параметр QPel формата                    : No
Параметр GMC формата                     : No warppoints
Параметр матрицы формата                 : Custom
Идентификатор кодека                     : XVID
Идентификатор кодека/Подсказка           : XviD
Продолжительность                        : 1 h 37 min
Битрейт                                  : 1 748 kb/s
Ширина                                   : 720 pixels
Высота                                   : 304 pixels
Соотношение сторон                       : 2.35:1
Частота кадров                           : 24.000 FPS
Цветовое пространство                    : YUV
Субдискретизация насыщенности            : 4:2:0
Битовая глубина                          : 8 bits
Тип развёртки                            : Progressive
Метод сжатия                             : Lossy
Бит/(Пиксели*Кадры)                      : 0.333
Размер потока                            : 1.19 GiB (82%)
Библиотека кодирования                   : XviD 73

Audio
Идентификатор                            : 1
Формат                                   : AC-3
Формат/Информация                        : Audio Coding 3
Идентификатор кодека                     : 2000
Продолжительность                        : 1 h 37 min
Вид битрейта                             : Constant
Битрейт                                  : 384 kb/s
Каналы                                   : 6 channels
Расположение каналов                     : Front: L C R, Side: L R, LFE
Частота                                  : 48.0 kHz
Частота кадров                           : 31.250 FPS (1536 SPF)
Битовая глубина                          : 16 bits
Метод сжатия                             : Lossy
Размер потока                            : 267 MiB (18%)
Выравнивание                             : Aligned on interleaves
Продолжительность промежутка             : 32  ms (0.77 video frame)




Скриншоты:
[+] Всего файлов в раздаче - 1:
SpastiLeningradWEBDLRip.avi1.46 GB

Показать еще раздачи по запросу спасти:
2019-03-05 U Спасти Ленинград (2019) WEB-DLRip от Scarabey | iTunes 1.44 GB ↑ 118 ↓ 63
2019-03-04 U Спасти Ленинград (2019) WEB-DLRip от Generalfilm | КПК | iTunes 369.80 MB ↑ 97 ↓ 36
2019-03-04 U Спасти Ленинград (2019) WEB-DLRip-AVC от OlLanDGroup | iTunes 1.46 GB ↑ 277 ↓ 146
2019-03-04 U Спасти Ленинград (2019) WEB-DLRip от GeneralFilm | iTunes 1К745.36 MB ↑ 418 ↓ 118
2019-03-04 U Спасти Ленинград (2019) WEB-DL 1080p | iTunes 1К3.30 GB ↑ 903 ↓ 580
2019-02-25 U Отставник. Спасти врага [01-02 из 02] (2019) HDTV 1080p от GeneralFilm 4.85 GB ↑ 56 ↓ 28
2019-02-24 U Отставник. Спасти врага [01-02 из 02] (2019) WEBRip 720p от GeneralFilm 2.49 GB ↑ 92 ↓ 61

Отзывы
Зарегистрируйтесь чтобы добавить комментарий.
Обратная связь
Copyleft ©