↑↓Torrent.by
Поиск
Логин: Регистрация
Пароль: Восстановить пароль
Загрузка...

Спасти Ленинград (2019) WEB-DL 1080p | iTunes

Скачать spasti-leningrad-2019-web-dl-1080p-itunes.torrent
U Магнитная ссылка Размер: 3.30 GB Раздают: 912 Качают: 583 Добавлен: 2019-03-04 06:42:53
Спасти Ленинград (2019) WEB-DL 1080p | iTunes

Название: Спасти Ленинград
Год выхода: 2019
Жанр: Драма, военный
Страна: Россия
Перевод: Не требуется
Продолжительность: 01:37:13
Режиссер: Алексей Козлов
В ролях: Мария Мельникова, Андрей Миронов-Удалов, Гела Месхи, Анастасия Мельникова, Валерий Дегтярь, Марина Комарова, Виталий Кищенко, Алексей Шевченков, Борис Щербаков, Инга Оболдина и др.

О фильме: Сентябрь 1941 года. Юные влюбленные Костя и Настя волею обстоятельств оказываются на барже, которая должна вывезти людей из блокадного Ленинграда. Ночью судно попадает в шторм и терпит бедствие, на месте трагедии первыми оказываются вовсе не спасатели, а вражеские самолеты.

Файл
Качество: WEB-DL 1080p
Видео: MPEG-4 AVC, 1920x802, 4474 kbps, 24,000 fps
Звук: русский, AC3, 5.1 ch, 48 kHz, 384 kbps | iTunes
Субтитры: английские (полные)

Релиз:


[+] MI
General
Уникальный идентификатор                 : 173102504677328270980826039547554279325 (0x823A5468928FBCC5A71A3786F1F5AF9D)
Полное имя                               : E:TorrentSpastiLeningradWEBDL1080p.mkv
Формат                                   : Matroska
Версия формата                           : Version 4 / Version 2
Размер файла                             : 3.30 GiB
Продолжительность                        : 1 h 37 min
Общий поток                              : 4 860 kb/s
Дата кодирования                         : UTC 2019-03-03 19:36:05
Программа кодирования                    : mkvmerge v9.5.0 ('Quiet Fire') 64bit
Библиотека кодирования                   : libebml v1.3.4 + libmatroska v1.4.5

Video
Идентификатор                            : 1
Формат                                   : AVC
Формат/Информация                        : Advanced Video Codec
Профиль формата                          : High@L4
Настройки формата                        : CABAC / 5 Ref Frames
Параметр CABAC формата                   : Yes
Параметр RefFrames формата               : 5 frames
Идентификатор кодека                     : V_MPEG4/ISO/AVC
Продолжительность                        : 1 h 37 min
Битрейт                                  : 4 474 kb/s
Ширина                                   : 1 920 pixels
Высота                                   : 802 pixels
Соотношение сторон                       : 2.40:1
Режим частоты кадров                     : Constant
Частота кадров                           : 24.000 FPS
Цветовое пространство                    : YUV
Субдискретизация насыщенности            : 4:2:0
Битовая глубина                          : 8 bits
Тип развёртки                            : Progressive
Бит/(Пиксели*Кадры)                      : 0.121
Размер потока                            : 3.04 GiB (92%)
Язык                                     : English
Default                                  : Yes
Forced                                   : No
Цветовой диапазон                        : Limited
Основные цвета                           : BT.709
Характеристики трансфера                 : BT.709
Коэффициенты матрицы                     : BT.709

Audio
Идентификатор                            : 2
Формат                                   : AC-3
Формат/Информация                        : Audio Coding 3
Идентификатор кодека                     : A_AC3
Продолжительность                        : 1 h 37 min
Вид битрейта                             : Constant
Битрейт                                  : 384 kb/s
Каналы                                   : 6 channels
Расположение каналов                     : Front: L C R, Side: L R, LFE
Частота                                  : 48.0 kHz
Частота кадров                           : 31.250 FPS (1536 SPF)
Битовая глубина                          : 16 bits
Метод сжатия                             : Lossy
Размер потока                            : 267 MiB (8%)
Язык                                     : Russian
Default                                  : Yes
Forced                                   : No

Text
Идентификатор                            : 3
Формат                                   : UTF-8
Идентификатор кодека                     : S_TEXT/UTF8
Идентификатор кодека/Информация          : UTF-8 Plain Text
Продолжительность                        : 1 h 30 min
Битрейт                                  : 46 b/s
ElementCount                             : 984
Размер потока                            : 30.6 KiB (0%)
Язык                                     : English
Default                                  : No
Forced                                   : No

Menu
00:00:00.000                             : en:Глава 1
00:09:04.291                             : en:Глава 2
00:17:19.666                             : en:Глава 3
00:25:25.291                             : en:Глава 4
00:33:30.332                             : en:Глава 5
00:41:45.207                             : en:Глава 6
00:49:56.248                             : en:Глава 7
00:58:28.331                             : en:Глава 8
01:06:43.331                             : en:Глава 9
01:15:41.539                             : en:Глава 10
01:23:56.747                             : en:Глава 11




Скриншоты:
[+] Всего файлов в раздаче - 1:
SpastiLeningradWEBDL1080p.mkv3.30 GB

Показать еще раздачи по запросу спасти:
2019-03-05 U Спасти Ленинград (2019) WEB-DLRip от Scarabey | iTunes 1.44 GB ↑ 127 ↓ 63
2019-03-04 U Спасти Ленинград (2019) WEB-DLRip от Generalfilm | КПК | iTunes 369.80 MB ↑ 99 ↓ 36
2019-03-04 U Спасти Ленинград (2019) WEB-DLRip-AVC от OlLanDGroup | iTunes 1.46 GB ↑ 280 ↓ 146
2019-03-04 U Спасти Ленинград (2019) WEB-DLRip от GeneralFilm | iTunes 1К745.36 MB ↑ 424 ↓ 118
2019-03-04 U Спасти Ленинград (2019) WEB-DLRip | iTunes 1.46 GB ↑ 926 ↓ 564
2019-02-25 U Отставник. Спасти врага [01-02 из 02] (2019) HDTV 1080p от GeneralFilm 4.85 GB ↑ 56 ↓ 28
2019-02-24 U Отставник. Спасти врага [01-02 из 02] (2019) WEBRip 720p от GeneralFilm 2.49 GB ↑ 98 ↓ 61

Отзывы
zorro
Спасибо за оперативность +10.

Зарегистрируйтесь чтобы добавить комментарий.
Обратная связь
Copyleft ©