↑↓Torrent.by
Поиск
Логин: Регистрация
Пароль: Восстановить пароль
Загрузка...

Чёрный пёс [01-04 из 04] (2018) WEBRip от GeneralFilm

Скачать chernyy-pes-01-04-iz-2018-webrip-ot-generalfilm.torrent
U Магнитная ссылка Размер: 2.18 GB Раздают: 125 Качают: 60 Добавлен: 2019-03-04 06:44:24
Чёрный пёс [01-04 из 04] (2018) WEBRip от GeneralFilm

Оригинальное название: Чёрный пёс
Год выпуска: 2018
Жанр:  Боевик, драма
Выпущено: Россия, ООО «Нью Арт Синема Продакшн», Беларусьфильм
Режиссер: Александр Франскевич-Лайе, Владимир Янковский
В ролях: Владимир Епифанцев, Карина Разумовская, Павел Делонг, Игорь Сигов, Павел Южаков-Харланчук, Александр Аверков, Виктория Маслова, Александр Франскевич-Лайе, Анатолий Кот, Владимир Иванов (VII)

О фильме: Торговец оружием международного масштаба Грэг Бриннер заключает сделку с одним из главарей террористов из серийной группировки о поставках компонентов оружия массового поражения. Для захвата Бриннера и уничтожения террористов в Сирию отправляют спецгруппу под командованием майора Андрея Рубцова. В результате успешной операции Бриннер захвачен, но предательство "союзника" приводит к гибели группы Рубцова. Однако Андрей остаётся жив. Спустя время он возвращается в Россию, но ничего не помнит. Вернуть память и поймать Бриннера Рубцову помогает сотрудница международной антитеррористической организации Ольга Смирнова.

Качество: WEBRip
Видео: XviD build 73, 720x368 (1.957), 25.000 fps, ~ 1570 Kbps (~ 0.237 bit/pixel)
Аудио: 48.0 kHz, AC3, 2/0 ch, 192 kbps
Продолжительность: 4 х ~ 00:44:00
Перевод: Не требуется
Cубтитры: нет

Релиз:


[+] MediaInfo

General
Complete name               : D:RazdachiChernyj.Pes.2018.WEBRip.GeneralFilmChernyj.Pes.e01.avi
Format                      : AVI
Format/Info                 : Audio Video Interleave
File size                   : 557 MiB
Duration                    : 43 min 52 s
Overall bit rate            : 1 775 kb/s
Writing application         : VirtualDubMod 1.5.10.3 | www.virtualdub-fr.org || (build 2550/release)
Writing library             : VirtualDubMod build 2550/release

Video
ID                          : 0
Format                      : MPEG-4 Visual
Format profile              : Advanced Simple@L5
Format settings             : BVOP1 / Custom Matrix
Format settings, BVOP       : 1
Format settings, QPel       : No
Format settings, GMC        : No warppoints
Format settings, Matrix     : Custom
Codec ID                    : XVID
Codec ID/Hint               : XviD
Duration                    : 43 min 52 s
Bit rate                    : 1 573 kb/s
Width                       : 720 pixels
Height                      : 368 pixels
Display aspect ratio        : 1.957
Frame rate                  : 25.000 FPS
Color space                 : YUV
Chroma subsampling          : 4:2:0
Bit depth                   : 8 bits
Scan type                   : Progressive
Compression mode            : Lossy
Bits/(Pixel*Frame)          : 0.237
Stream size                 : 494 MiB (89%)
Writing library             : XviD 73

Audio
ID                          : 1
Format                      : AC-3
Format/Info                 : Audio Coding 3
Commercial name             : Dolby Digital
Codec ID                    : 2000
Duration                    : 43 min 52 s
Bit rate mode               : Constant
Bit rate                    : 192 kb/s
Channel(s)                  : 2 channels
Channel layout              : L R
Sampling rate               : 48.0 kHz
Frame rate                  : 31.250 FPS (1536 SPF)
Bit depth                   : 16 bits
Compression mode            : Lossy
Stream size                 : 60.3 MiB (11%)
Alignment                   : Split accross interleaves
Interleave, duration        : 40  ms (1.00 video frame)
Interleave, preload duratio : 500  ms
Service kind                : Complete Main



Скриншоты:
[+] Всего файлов в раздаче - 4:
Chernyj.Pes.e01.avi557.01 MB
Chernyj.Pes.e02.avi556.76 MB
Chernyj.Pes.e03.avi556.88 MB
Chernyj.Pes.e04.avi556.95 MB

Отзывы
Зарегистрируйтесь чтобы добавить комментарий.
Обратная связь
Copyleft ©