↑↓Torrent.by
Поиск
Логин: Регистрация
Пароль: Восстановить пароль
Загрузка...

Спасти Ленинград (2019) WEB-DLRip от GeneralFilm | iTunes

Скачать spasti-leningrad-2019-web-dlrip-ot-generalfilm-itunes.torrent
U Магнитная ссылка Размер: 745.36 MB Раздают: 414 Качают: 118 Добавлен: 2019-03-04 12:39:02
Спасти Ленинград (2019) WEB-DLRip от GeneralFilm | iTunes

Оригинальное название: Спасти Ленинград
Год выпуска: 2019
Жанр:  Драма, военный
Выпущено: Россия
Режиссер: Алексей Козлов
В ролях: Мария Мельникова, Андрей Миронов-Удалов, Гела Месхи, Анастасия Мельникова, Валерий Дегтярь, Марина Комарова, Виталий Кищенко, Алексей Шевченков, Борис Щербаков, Инга Оболдина и др.

О фильме: Сентябрь 1941 года. Юные влюбленные Костя и Настя волею обстоятельств оказываются на барже, которая должна вывезти людей из блокадного Ленинграда. Ночью судно попадает в шторм и терпит бедствие, на месте трагедии первыми оказываются вовсе не спасатели, а вражеские самолеты.

Качество: WEB-DLRip
Видео: XviD build 73, 688x288 (2.37:1), 24.000 fps, 935 Kbps (0.197 bit/pixel)
Аудио: 48.0 kHz, MP3 2ch, 128 kbps
Продолжительность: 01:37:13
Перевод: Не требуется
Cубтитры: нет

Релиз:


[+] MediaInfo

General
Complete name               : D:RazdachiSpasti.Leningrad.2019.WEB-DLRip.GeneralFilm.avi
Format                      : AVI
Format/Info                 : Audio Video Interleave
File size                   : 745 MiB
Duration                    : 1 h 37 min
Overall bit rate            : 1 072 kb/s
Writing application         : VirtualDubMod 1.5.10.3 | www.virtualdub-fr.org || (build 2550/release)
Writing library             : VirtualDubMod build 2550/release

Video
ID                          : 0
Format                      : MPEG-4 Visual
Format profile              : Advanced Simple@L5
Format settings             : BVOP1 / Custom Matrix
Format settings, BVOP       : 1
Format settings, QPel       : No
Format settings, GMC        : No warppoints
Format settings, Matrix     : Custom
Codec ID                    : XVID
Codec ID/Hint               : XviD
Duration                    : 1 h 37 min
Bit rate                    : 935 kb/s
Width                       : 688 pixels
Height                      : 288 pixels
Display aspect ratio        : 2.40:1
Frame rate                  : 24.000 FPS
Color space                 : YUV
Chroma subsampling          : 4:2:0
Bit depth                   : 8 bits
Scan type                   : Progressive
Compression mode            : Lossy
Bits/(Pixel*Frame)          : 0.197
Stream size                 : 650 MiB (87%)
Writing library             : XviD 73

Audio
ID                          : 1
Format                      : MPEG Audio
Format version              : Version 1
Format profile              : Layer 3
Codec ID                    : 55
Codec ID/Hint               : MP3
Duration                    : 1 h 37 min
Bit rate mode               : Constant
Bit rate                    : 128 kb/s
Channel(s)                  : 2 channels
Sampling rate               : 48.0 kHz
Frame rate                  : 41.667 FPS (1152 SPF)
Compression mode            : Lossy
Stream size                 : 89.0 MiB (12%)
Alignment                   : Aligned on interleaves
Interleave, duration        : 42  ms (1.00 video frame)
Interleave, preload duratio : 504  ms
Writing library             : LAME3.99r
Encoding settings           : -m s -V 4 -q 2 -lowpass 17 -b 128



Скриншоты:
[+] Всего файлов в раздаче - 1:
Spasti.Leningrad.2019.WEB-DLRip.GeneralFilm.avi745.36 MB

Показать еще раздачи по запросу спасти:
2019-03-05 U Спасти Ленинград (2019) WEB-DLRip от Scarabey | iTunes 1.44 GB ↑ 111 ↓ 63
2019-03-04 U Спасти Ленинград (2019) WEB-DLRip от Generalfilm | КПК | iTunes 369.80 MB ↑ 97 ↓ 36
2019-03-04 U Спасти Ленинград (2019) WEB-DLRip-AVC от OlLanDGroup | iTunes 1.46 GB ↑ 276 ↓ 146
2019-03-04 U Спасти Ленинград (2019) WEB-DL 1080p | iTunes 1К3.30 GB ↑ 888 ↓ 579
2019-03-04 U Спасти Ленинград (2019) WEB-DLRip | iTunes 1.46 GB ↑ 917 ↓ 562
2019-02-25 U Отставник. Спасти врага [01-02 из 02] (2019) HDTV 1080p от GeneralFilm 4.85 GB ↑ 55 ↓ 28
2019-02-24 U Отставник. Спасти врага [01-02 из 02] (2019) WEBRip 720p от GeneralFilm 2.49 GB ↑ 87 ↓ 61

Отзывы
mihrutka
Спасибо большое за комп.размер и отличное качество картинки!

Зарегистрируйтесь чтобы добавить комментарий.
Обратная связь
Copyleft ©