↑↓Torrent.by
Поиск
Логин: Регистрация
Пароль: Восстановить пароль
Загрузка...

Аквамен / Aquaman (2018) WEB-DL 1080p от селезень | IMAX Edition | D, P | iTunes

Скачать akvamen-aquaman-2018-web-dl-1080p-ot-selezen-imax-edition-d-p-itunes.torrent
U Магнитная ссылка Размер: 6.43 GB Раздают: 1882 Качают: 857 Добавлен: 2019-03-06 11:27:37
Аквамен / Aquaman (2018) WEB-DL 1080p от селезень | IMAX Edition | D, P | iTunes

Название: Аквамен
Оригинальное название: Aquaman
Год выхода: 2018
Жанр: Фантастика, фэнтези, боевик, приключения
Режиссер: Джеймс Ван
В ролях: Джейсон Момоа, Эмбер Хёрд, Дольф Лундгрен, Николь Кидман, Джули Эндрюс, Патрик Уилсон, Уиллем Дефо, Грэм МакТавиш, Талия Джейд, Джимон Хонсу, Темуэра Моррисон, Майкл Бич

О фильме: Действие фильма разворачивается в необъятном и захватывающем подводном мире семи морей, а сюжет знакомит зрителей с историей происхождения получеловека-полуатланта Артура Карри и ключевыми событиями его жизни — теми, что заставят его не только столкнуться с самим собой, но и выяснить, достоин ли он быть тем, кем ему суждено… царем!

Страна: Австралия, США
Студия: DC Comics, DC Entertainment, Panoramic Pictures
Продолжительность: 02:23:19
Перевод(ы):
#1: Дублированный | iTunes
#2: Профессиональный многоголосый | HDRezka Studio

Качество: WEB-DL 1080p
Видео: MPEG-4 AVC, 1920x1080, 5333 Kbit/s, 23.976 fps
Звук:
Аудио #01: 48 kHz, AC3, 5.1, 384 Kbps | Дублированный | RUS |
Аудио #02: 48 kHz, AC3, 2.0, 192 Kbps | Профессиональный многоголосый | RUS |
Аудио #03: 48 kHz, AAC, 2.0, 127 Kbps | Дублированный | UKR |
Аудио #04: 48 kHz, AC3, 5.1, 384 Kbps | Оригинал |  ENG |
Субтитры: Русские (Forced, full), украинские (Forced), английские

Релиз:


[+] MI
General
Unique ID                   : 332912773983690640068967785855070686475 (0xFA74AB03E91CE106484AFD8E9EB2CD0B)
Complete name               : D:Video111Aquaman.2018.WEB-DL.1080p.seleZen.mkv
Format                      : Matroska
Format version              : Version 4
File size                   : 6.43 GiB
Duration                    : 2 h 23 min
Overall bit rate            : 6 423 kb/s
Movie name                  : Aquaman 2018 from селезень
Encoded date                : UTC 2019-03-05 19:27:57
Writing application         : mkvmerge v31.0.0 ('Dolores In A Shoestand') 64-bit
Writing library             : libebml v1.3.6 + libmatroska v1.4.9

Video
ID                          : 1
Format                      : AVC
Format/Info                 : Advanced Video Codec
Format profile              : High@L4
Format settings             : CABAC / 4 Ref Frames
Format settings, CABAC      : Yes
Format settings, ReFrames   : 4 frames
Codec ID                    : V_MPEG4/ISO/AVC
Duration                    : 2 h 23 min
Bit rate                    : 5 333 kb/s
Width                       : 1 920 pixels
Height                      : 1 080 pixels
Display aspect ratio        : 16:9
Frame rate mode             : Constant
Frame rate                  : 23.976 (24000/1001) FPS
Color space                 : YUV
Chroma subsampling          : 4:2:0
Bit depth                   : 8 bits
Scan type                   : Progressive
Bits/(Pixel*Frame)          : 0.107
Stream size                 : 5.34 GiB (83%)
Language                    : English
Default                     : Yes
Forced                      : No
Color range                 : Limited
Color primaries             : BT.709
Transfer characteristics    : BT.709
Matrix coefficients         : BT.709

Audio #1
ID                          : 2
Format                      : AC-3
Format/Info                 : Audio Coding 3
Commercial name             : Dolby Digital
Codec ID                    : A_AC3
Duration                    : 2 h 23 min
Bit rate mode               : Constant
Bit rate                    : 384 kb/s
Channel(s)                  : 6 channels
Channel layout              : L R C LFE Ls Rs
Sampling rate               : 48.0 kHz
Frame rate                  : 31.250 FPS (1536 SPF)
Bit depth                   : 16 bits
Compression mode            : Lossy
Stream size                 : 394 MiB (6%)
Title                       : iTunes
Language                    : Russian
Service kind                : Complete Main
Default                     : Yes
Forced                      : Yes

Audio #2
ID                          : 3
Format                      : AC-3
Format/Info                 : Audio Coding 3
Commercial name             : Dolby Digital
Codec ID                    : A_AC3
Duration                    : 2 h 23 min
Bit rate mode               : Constant
Bit rate                    : 192 kb/s
Channel(s)                  : 2 channels
Channel layout              : L R
Sampling rate               : 48.0 kHz
Frame rate                  : 31.250 FPS (1536 SPF)
Bit depth                   : 16 bits
Compression mode            : Lossy
Stream size                 : 197 MiB (3%)
Title                       : MVO [HDRezka Studio]
Language                    : Russian
Service kind                : Complete Main
Default                     : No
Forced                      : No

Audio #3
ID                          : 4
Format                      : AAC LC
Format/Info                 : Advanced Audio Codec Low Complexity
Codec ID                    : A_AAC-2
Duration                    : 2 h 23 min
Bit rate                    : 127 kb/s
Channel(s)                  : 2 channels
Channel layout              : L R
Sampling rate               : 44.1 kHz
Frame rate                  : 43.066 FPS (1024 SPF)
Compression mode            : Lossy
Stream size                 : 130 MiB (2%)
Title                       : iTunes
Language                    : Ukrainian
Default                     : No
Forced                      : No

Audio #4
ID                          : 5
Format                      : AC-3
Format/Info                 : Audio Coding 3
Commercial name             : Dolby Digital
Codec ID                    : A_AC3
Duration                    : 2 h 23 min
Bit rate mode               : Constant
Bit rate                    : 384 kb/s
Channel(s)                  : 6 channels
Channel layout              : L R C LFE Ls Rs
Sampling rate               : 48.0 kHz
Frame rate                  : 31.250 FPS (1536 SPF)
Bit depth                   : 16 bits
Compression mode            : Lossy
Stream size                 : 394 MiB (6%)
Title                       : Original
Language                    : English
Service kind                : Complete Main
Default                     : No
Forced                      : No

Text #1
ID                          : 6
Format                      : UTF-8
Codec ID                    : S_TEXT/UTF8
Codec ID/Info               : UTF-8 Plain Text
Duration                    : 2 h 14 min
Bit rate                    : 1 b/s
Count of elements           : 27
Stream size                 : 1.23 KiB (0%)
Title                       : Forced
Language                    : Russian
Default                     : Yes
Forced                      : Yes

Text #2
ID                          : 7
Format                      : UTF-8
Codec ID                    : S_TEXT/UTF8
Codec ID/Info               : UTF-8 Plain Text
Duration                    : 2 h 22 min
Bit rate                    : 55 b/s
Count of elements           : 1119
Stream size                 : 58.0 KiB (0%)
Title                       : Full
Language                    : Russian
Default                     : No
Forced                      : No

Text #3
ID                          : 8
Format                      : UTF-8
Codec ID                    : S_TEXT/UTF8
Codec ID/Info               : UTF-8 Plain Text
Duration                    : 2 h 22 min
Bit rate                    : 1 b/s
Count of elements           : 32
Stream size                 : 1.54 KiB (0%)
Title                       : Forced
Language                    : Ukrainian
Default                     : No
Forced                      : No

Text #4
ID                          : 9
Format                      : UTF-8
Codec ID                    : S_TEXT/UTF8
Codec ID/Info               : UTF-8 Plain Text
Duration                    : 2 h 14 min
Bit rate                    : 38 b/s
Count of elements           : 1132
Stream size                 : 37.5 KiB (0%)
Language                    : English
Default                     : No
Forced                      : No

Menu
00:00:00.000                : en:1
00:11:08.293                : en:2
00:22:10.621                : en:3
00:30:10.017                : en:4
00:40:27.718                : en:5
00:50:23.647                : en:6
01:01:14.756                : en:7
01:08:56.092                : en:8
01:21:40.272                : en:9
01:34:49.436                : en:10
01:39:36.431                : en:11
01:49:31.818                : en:12
02:01:35.541                : en:13
02:10:18.897                : en:14



Скриншоты:
[+] Всего файлов в раздаче - 1:
Aquaman.2018.WEB-DL.1080p.seleZen.mkv6.43 GB

Показать еще раздачи по запросу аквамен:
Сегодня U Аквамен / Aquaman (2018) BDRip-AVC от Files-x | IMAX Edition | Лицензия 3.42 GB ↑ 33 ↓ 6
Вчера U Аквамен / Aquaman (2018) BDRip-HEVC 1080p от HANNIBAL | IMAX | Лицензия 12.37 GB ↑ 48 ↓ 28
2019-03-23 U Аквамен / Aquaman (2018) BDRip-HEVC 1080p | IMAX | Лицензия 9.48 GB ↑ 119 ↓ 83
2019-03-21 U Аквамен / Aquaman (2018) HDRip от Scarabey | IMAX Edition | Лицензия 1.45 GB ↑ 103 ↓ 25
2019-03-20 U Аквамен / Aquaman (2018) BDRip от ExKinoRay | IMAX Edition | Лицензия 1.46 GB ↑ 79 ↓ 26
2019-03-20 U Аквамен / Aquaman (2018) BDRip 1080p от qqss44 & MegaPeer | IMAX Edition | Лицензия 9.90 GB ↑ 91 ↓ 52
2019-03-20 U Аквамен / Aquaman (2018) BDRip 1080p от Ash61 | 3D-Video | halfOU | Лицензия 17.29 GB ↑ 129 ↓ 82

Отзывы
Зарегистрируйтесь чтобы добавить комментарий.
Обратная связь
Copyleft ©