↑↓Torrent.by
Поиск
Логин: Регистрация
Пароль: Восстановить пароль
Загрузка...

Холодная война / Zimna wojna (2018) BDRip | iTunes

Скачать holodnaya-voyna-zimna-wojna-2018-bdrip-itunes.torrent
U Магнитная ссылка Размер: 1.46 GB Раздают: 75 Качают: 22 Добавлен: 2019-03-06 11:31:46
Холодная война / Zimna wojna (2018) BDRip | iTunes

Название: Холодная война
Оригинальное название: Zimna wojna
Год выхода: 2018
Жанр: Драма, мелодрама, музыка
Страна: Польша, Великобритания, Франция
Перевод: Дублированный | iTunes
Продолжительность: 01:28:00
Режиссер: Павел Павликовский
В ролях: Иоанна Кулиг, Томаш Кот, Борис Шиц, Агата Кулеша, Седрик Кан, Жанна Балибар, Адам Воронович, Адам Ференцы, Дражен Сивак, Славко Собин и др.

О фильме: Это история невозможной любви в невозможное время. Они знакомятся на руинах послевоенной Польши. Разное происхождение и несхожие темпераменты — кажется, что они совершенно несовместимы. И все же им никуда друг от друга не деться. На протяжении лет они расстаются и встречаются вновь и вновь — в Берлине, Югославии и Париже… На пути их любви встают политика, превратности судьбы и их собственные недостатки, но ничто не в силах разорвать связь двух сердец.

Файл
Формат: AVI
Качество: BDRip | Zimna.wojna.2018.BDRemux.TeamHD
Видео: Xvid 73, 704x528, ~1972 kbps, 24,000 fps
Звук: русский, AC3, 5.1 ch, 48 kHz, 384 kbps | iTunes
Субтитры: русские (форс. вшитые)

Релиз:


[+] MI
Общее
Полное имя                               : E:TorrentZimnaWojnaBDRip.avi
Формат                                   : AVI
Формат/Информация                        : Audio Video Interleave
Профиль формата                          : OpenDML
Размер файла                             : 1,46 Гбайт
Продолжительность                        : 1 ч. 28 м.
Общий поток                              : 2367 Кбит/сек
Программа кодирования                    : XviD4PSP 6.0 / 54.27.101

Видео
Идентификатор                            : 0
Формат                                   : MPEG-4 Visual
Профиль формата                          : Advanced Simple@L5
Настройки формата                        : BVOP2 / Custom Matrix
Параметр BVOP формата                    : 2
Параметр QPel формата                    : Нет
Параметр GMC формата                     : Без точки перехода
Параметр матрицы формата                 : Выборочная
Идентификатор кодека                     : XVID
Идентификатор кодека/Подсказка           : XviD
Продолжительность                        : 1 ч. 28 м.
Битрейт                                  : 1972 Кбит/сек
Ширина                                   : 704 пикселя
Высота                                   : 528 пикселей
Соотношение сторон                       : 4:3
Частота кадров                           : 24,000 кадра/сек
Цветовое пространство                    : YUV
Субдискретизация насыщенности            : 4:2:0
Битовая глубина                          : 8 бит
Тип развёртки                            : Прогрессивная
Метод сжатия                             : С потерями
Бит/(Пиксели*Кадры)                      : 0.221
Размер потока                            : 1,21 Гбайт (83%)
Библиотека кодирования                   : XviD 73

Аудио
Идентификатор                            : 1
Формат                                   : AC-3
Формат/Информация                        : Audio Coding 3
Идентификатор кодека                     : 2000
Продолжительность                        : 1 ч. 28 м.
Вид битрейта                             : Постоянный
Битрейт                                  : 384 Кбит/сек
Каналы                                   : 6 каналов
Расположение каналов                     : Front: L C R, Side: L R, LFE
Частота                                  : 48,0 КГц
Частота кадров                           : 31,250 кадров/сек (1536 SPF)
Битовая глубина                          : 16 бит
Метод сжатия                             : С потерями
Размер потока                            : 242 Мбайт (16%)
Выравнивание                             : Соединение по промежуткам
Продолжительность промежутка             : 32  мс. (0,77 видеокадр)




Скриншоты:
[+] Всего файлов в раздаче - 1:
ZimnaWojnaBDRip.avi1.46 GB

Показать еще раздачи по запросу холодная:
2019-03-06 U Холодная война / Zimna wojna (2018) BDRip 1080p | iTunes 7.66 GB ↑ 113 ↓ 27
2019-03-05 U Холодная война / Zimna wojna (2018) BDRip 1080p | iTunes 7.66 GB ↑ 83 ↓ 38
2019-03-01 U Алекс Уайт - Чужой. Холодная кузница (2019) FB2 1К2.64 MB ↑ 110 ↓ 2
2018-12-25 U Холодная земля / Cold Ground (2017) WEB-DLRip-AVC | L2 745.71 MB ↑ 145 ↓ 19
2018-12-21 U Холодная земля / Cold Ground (2017) WEBRip | L2 1.26 GB ↑ 51 ↓ 12
2018-12-21 U Холодная земля / Cold Ground (2017) WEBRip 720p | L2 2.01 GB ↑ 69 ↓ 5
2018-11-03 U Холодная война / Zimna wojna (2018) BDRip от MegaPeer | Чадов 1.46 GB ↑ 254 ↓ 26

Отзывы
Зарегистрируйтесь чтобы добавить комментарий.
Обратная связь
Copyleft ©