↑↓Torrent.by
Поиск
Логин: Регистрация
Пароль: Восстановить пароль
Загрузка...

Фаворитка / The Favourite (2018) BDRip 1080p | D, P | iTunes

Скачать favoritka-the-favourite-2018-bdrip-1080p-d-p-itunes.torrent
U Магнитная ссылка Размер: 9.71 GB Раздают: 334 Качают: 199 Добавлен: 2019-03-07 08:18:18
Фаворитка / The Favourite (2018) BDRip 1080p | D, P | iTunes

Название: Фаворитка
Оригинальное название: The Favourite
Год выхода: 2018
Жанр: Драма, комедия, биография, история
Страна: Ирландия, Великобритания, США
Переводы:
#1: Дублированный | iTunes
#2: Профессиональный (многоголосый закадровый) | HDRezka Studio
Продолжительность: 01:59:29
Режиссер: Йоргос Лантимос
В ролях: Оливия Колман, Рэйчел Вайс, Эмма Стоун, Джо Элвин, Николас Холт, Эмма Делвс, Фэй Дейвней, Пол Суэйн, Дженнифер Уайт, Лилироуз Стивенс и др.

О фильме: Начало XVIII века. Идет война Англии с Францией. Тем не менее, жизнь в королевстве продолжается. Трон занимает болезненная королева Анна, и страной фактически руководит её близкая подруга леди Сара Мальборо. Когда во дворце появляется девушка Эбигейл, родственница леди Сары, та сначала определяет её работать на кухне. Но вскоре новенькая удачно находит лекарство для больной подагрой королевы, тогда Сара решает сделать её своей служанкой. Для Эбигейл это — шанс вернуться к своим аристократическим корням, и лучше не вставать у неё на пути.

Файл
Качество: BDRip 1080p
Видео: MPEG-4 AVC, 1920x1038, 10610 kbps, 23,976 fps
Звук#1: русский, AC3, 5.1 ch, 48 kHz, 384 kbps | iTunes
Звук#2: русский, AC3, 2.0 ch, 48 kHz, 192 kbps | HDRezka Studio
Звук#3: английский, AC3, 5.1 ch, 48 kHz, 448 kbps | оригинал
Субтитры: русские (форс., полные), украинские (полные), английские (полные, SDH)

Релиз:


[+] MI
General
Уникальный идентификатор                 : 178009885423474053511607268266964261563 (0x85EB74F5A7BB8A2FA8C1B9C061819ABB)
Полное имя                               : E:TorrentTheFavouriteBDRip1080p.mkv
Формат                                   : Matroska
Версия формата                           : Version 4 / Version 2
Размер файла                             : 9.71 GiB
Продолжительность                        : 1 h 59 min
Общий поток                              : 11.6 Mb/s
Дата кодирования                         : UTC 2019-03-06 20:45:27
Программа кодирования                    : mkvmerge v9.5.0 ('Quiet Fire') 64bit
Библиотека кодирования                   : libebml v1.3.4 + libmatroska v1.4.5

Video
Идентификатор                            : 1
Формат                                   : AVC
Формат/Информация                        : Advanced Video Codec
Профиль формата                          : High@L4.1
Настройки формата                        : CABAC / 4 Ref Frames
Параметр CABAC формата                   : Yes
Параметр RefFrames формата               : 4 frames
Идентификатор кодека                     : V_MPEG4/ISO/AVC
Продолжительность                        : 1 h 59 min
Битрейт                                  : 10.6 Mb/s
Ширина                                   : 1 920 pixels
Высота                                   : 1 038 pixels
Соотношение сторон                       : 1.85:1
Режим частоты кадров                     : Constant
Частота кадров                           : 23.976 (24000/1001) FPS
Цветовое пространство                    : YUV
Субдискретизация насыщенности            : 4:2:0
Битовая глубина                          : 8 bits
Тип развёртки                            : Progressive
Бит/(Пиксели*Кадры)                      : 0.222
Размер потока                            : 8.86 GiB (91%)
Библиотека кодирования                   : x264 core 157 r2935 545de2f
Настройки программы                      : cabac=1 / ref=4 / deblock=1:-2:-2 / analyse=0x3:0x113 / me=umh / subme=11 / psy=1 / psy_rd=1.00:0.00 / mixed_ref=1 / me_range=32 / chroma_me=1 / trellis=2 / 8x8dct=1 / cqm=0 / deadzone=21,11 / fast_pskip=0 / chroma_qp_offset=-2 / threads=9 / lookahead_threads=2 / sliced_threads=0 / nr=0 / decimate=0 / interlaced=0 / bluray_compat=0 / constrained_intra=0 / bframes=14 / b_pyramid=2 / b_adapt=2 / b_bias=0 / direct=3 / weightb=1 / open_gop=0 / weightp=2 / keyint=240 / keyint_min=24 / scenecut=40 / intra_refresh=0 / rc_lookahead=120 / rc=2pass / mbtree=0 / bitrate=10610 / ratetol=1.0 / qcomp=0.70 / qpmin=0 / qpmax=69 / qpstep=4 / cplxblur=20.0 / qblur=0.5 / vbv_maxrate=50000 / vbv_bufsize=62500 / nal_hrd=none / filler=0 / ip_ratio=1.40 / pb_ratio=1.30 / aq=3:0.80
Язык                                     : English
Default                                  : Yes
Forced                                   : No

Audio #1
Идентификатор                            : 2
Формат                                   : AC-3
Формат/Информация                        : Audio Coding 3
Идентификатор кодека                     : A_AC3
Продолжительность                        : 1 h 59 min
Вид битрейта                             : Constant
Битрейт                                  : 384 kb/s
Каналы                                   : 6 channels
Расположение каналов                     : Front: L C R, Side: L R, LFE
Частота                                  : 48.0 kHz
Частота кадров                           : 31.250 FPS (1536 SPF)
Битовая глубина                          : 16 bits
Метод сжатия                             : Lossy
Размер потока                            : 328 MiB (3%)
Заголовок                                : iTunes
Язык                                     : Russian
Default                                  : Yes
Forced                                   : No

Audio #2
Идентификатор                            : 3
Формат                                   : AC-3
Формат/Информация                        : Audio Coding 3
Идентификатор кодека                     : A_AC3
Продолжительность                        : 1 h 59 min
Вид битрейта                             : Constant
Битрейт                                  : 192 kb/s
Каналы                                   : 2 channels
Расположение каналов                     : Front: L R
Частота                                  : 48.0 kHz
Частота кадров                           : 31.250 FPS (1536 SPF)
Битовая глубина                          : 16 bits
Метод сжатия                             : Lossy
Размер потока                            : 164 MiB (2%)
Заголовок                                : HDRezka
Язык                                     : Russian
Default                                  : No
Forced                                   : No

Audio #3
Идентификатор                            : 4
Формат                                   : AC-3
Формат/Информация                        : Audio Coding 3
Идентификатор кодека                     : A_AC3
Продолжительность                        : 1 h 59 min
Вид битрейта                             : Constant
Битрейт                                  : 448 kb/s
Каналы                                   : 6 channels
Расположение каналов                     : Front: L C R, Side: L R, LFE
Частота                                  : 48.0 kHz
Частота кадров                           : 31.250 FPS (1536 SPF)
Битовая глубина                          : 16 bits
Метод сжатия                             : Lossy
Размер потока                            : 383 MiB (4%)
Язык                                     : English
Default                                  : No
Forced                                   : No

Text #1
Идентификатор                            : 5
Формат                                   : UTF-8
Идентификатор кодека                     : S_TEXT/UTF8
Идентификатор кодека/Информация          : UTF-8 Plain Text
Продолжительность                        : 1 h 57 min
Битрейт                                  : 0 b/s
ElementCount                             : 11
Размер потока                            : 464 Bytes (0%)
Заголовок                                : rusForced
Язык                                     : Russian
Default                                  : Yes
Forced                                   : Yes

Text #2
Идентификатор                            : 6
Формат                                   : UTF-8
Идентификатор кодека                     : S_TEXT/UTF8
Идентификатор кодека/Информация          : UTF-8 Plain Text
Продолжительность                        : 1 h 57 min
Битрейт                                  : 86 b/s
ElementCount                             : 1316
Размер потока                            : 75.0 KiB (0%)
Заголовок                                : rusFull
Язык                                     : Russian
Default                                  : No
Forced                                   : No

Text #3
Идентификатор                            : 7
Формат                                   : UTF-8
Идентификатор кодека                     : S_TEXT/UTF8
Идентификатор кодека/Информация          : UTF-8 Plain Text
Продолжительность                        : 1 h 57 min
Битрейт                                  : 89 b/s
ElementCount                             : 1319
Размер потока                            : 76.9 KiB (0%)
Заголовок                                : ukrFull
Язык                                     : Ukrainian
Default                                  : No
Forced                                   : No

Text #4
Идентификатор                            : 8
Формат                                   : UTF-8
Идентификатор кодека                     : S_TEXT/UTF8
Идентификатор кодека/Информация          : UTF-8 Plain Text
Продолжительность                        : 1 h 55 min
Битрейт                                  : 52 b/s
ElementCount                             : 1395
Размер потока                            : 43.9 KiB (0%)
Заголовок                                : engFull
Язык                                     : English
Default                                  : No
Forced                                   : No

Text #5
Идентификатор                            : 9
Формат                                   : UTF-8
Идентификатор кодека                     : S_TEXT/UTF8
Идентификатор кодека/Информация          : UTF-8 Plain Text
Продолжительность                        : 1 h 57 min
Битрейт                                  : 56 b/s
ElementCount                             : 1584
Размер потока                            : 48.7 KiB (0%)
Заголовок                                : engSDH
Язык                                     : English
Default                                  : No
Forced                                   : No

Menu
00:00:00.000                             : :Chapter 01
00:18:36.323                             : :Chapter 02
00:40:35.266                             : :Chapter 03
00:46:44.134                             : :Chapter 04
01:06:23.145                             : :Chapter 05
01:15:12.466                             : :Chapter 06
01:28:32.473                             : :Chapter 07
01:36:55.768                             : :Chapter 08




Скриншоты:
[+] Всего файлов в раздаче - 1:
TheFavouriteBDRip1080p.mkv9.71 GB

Показать еще раздачи по запросу фаворитка:
2019-05-06 U Фаворитка / The Favourite (2018) BDRip от MegaPeer | Лицензия 1.46 GB ↑ 32 ↓ 30
2019-03-07 U Фаворитка / The Favourite (2018) BDRip-AVC от OlLanDGroup | D, P | iTunes 2.50 GB ↑ 133 ↓ 34
2019-03-07 U Фаворитка / The Favourite (2018) BDRip от MegaPeer | iTunes 2.13 GB ↑ 104 ↓ 31
2019-03-07 U Фаворитка / The Favourite (2018) BDRip от MegaPeer | iTunes 1.41 GB ↑ 40 ↓ 27
2019-03-07 U Фаворитка / The Favourite (2018) BDRip 720p | D, P | iTunes 5.65 GB ↑ 87 ↓ 84
2019-03-07 U Фаворитка / The Favourite (2018) BDRip | iTunes 1.46 GB ↑ 251 ↓ 150
2019-03-02 U Фаворитка / The Favourite (2018) HDRip от Scarabey | HDRezka Studio 1.39 GB ↑ 71 ↓ 9

Отзывы
Зарегистрируйтесь чтобы добавить комментарий.
Обратная связь
Copyleft ©