↑↓Torrent.by
Поиск
Логин: Регистрация
Пароль: Восстановить пароль
Загрузка...

Гадалка [01-16 из 16] (2018) WEBRip от GeneralFilm

Скачать gadalka-01-16-iz-2018-webrip-ot-generalfilm.torrent
U Магнитная ссылка Размер: 8.71 GB Раздают: 47 Качают: 129 Добавлен: 2019-03-07 08:19:19
Гадалка [01-16 из 16] (2018) WEBRip от GeneralFilm

Оригинальное название: Гадалка
Год выпуска: 2018
Жанр:  Детектив, триллер
Выпущено: Россия, «Горад», ВВП «Альянс»
Режиссер: Илья Казанков
В ролях: Михаил Пореченков, Екатерина Олькина, Яна Крайнова, Юлия Ауг, Дмитрий Репин, Михаил Парыгин, Владимир Капустин, Василий Бочкарёв, Борис Щербаков, Анна Тараторкина, Николай Иванов , Александр Асташёнок, Сергей Губанов, Александр Левин , Константин Воробьёв, Лидия Мельникова, Лилия Лаврова, Евгений Рубаха, Виктория Рунцова, Анастасия Чуева, Игорь Ключников

О фильме: В центре сюжета — столичный майор Алексей Потапов и девушка из маленького провинциального городка Люся Некрасова — на первый взгляд, странный тандем, занимающийся расследованием сложных преступлений. Люся — необычная девушка: она видит людей, места, детали преступлений. Описав со стопроцентной точностью место убийства собственной сестры, Некрасова становится незаменимым сотрудником полиции, с чем категорически не согласен ее начальник — Потапов, привыкший верить только неопровержимым фактам, а не каким-то там видениям и предчувствиям. Но вскоре он вынужден признать: ненормальная «гадалка» все чаще оказывается права.

Качество: WEBRip
Видео: XviD build 73, 720x400 (16:9), 25.000 fps, ~ 1430 Kbps (~ 0.200 bit/pixel)
Аудио: 48.0 kHz, AC3, 2/0 ch, 192 kbps
Продолжительность: 16 x ~ 00:46:00
Перевод: Не требуется
Cубтитры: нет

Релиз:


[+] MediaInfo

General
Complete name               : D:RazdachiGadalka.2018.WEBRip.GeneralFilmGadalka.e01.avi
Format                      : AVI
Format/Info                 : Audio Video Interleave
File size                   : 557 MiB
Duration                    : 47 min 31 s
Overall bit rate            : 1 640 kb/s
Writing application         : VirtualDubMod 1.5.10.3 | www.virtualdub-fr.org || (build 2550/release)
Writing library             : VirtualDubMod build 2550/release

Video
ID                          : 0
Format                      : MPEG-4 Visual
Format profile              : Advanced Simple@L5
Format settings             : BVOP1 / Custom Matrix
Format settings, BVOP       : 1
Format settings, QPel       : No
Format settings, GMC        : No warppoints
Format settings, Matrix     : Custom
Codec ID                    : XVID
Codec ID/Hint               : XviD
Duration                    : 47 min 31 s
Bit rate                    : 1 438 kb/s
Width                       : 720 pixels
Height                      : 400 pixels
Display aspect ratio        : 16:9
Frame rate                  : 25.000 FPS
Color space                 : YUV
Chroma subsampling          : 4:2:0
Bit depth                   : 8 bits
Scan type                   : Progressive
Compression mode            : Lossy
Bits/(Pixel*Frame)          : 0.200
Stream size                 : 489 MiB (88%)
Writing library             : XviD 73

Audio
ID                          : 1
Format                      : AC-3
Format/Info                 : Audio Coding 3
Commercial name             : Dolby Digital
Codec ID                    : 2000
Duration                    : 47 min 31 s
Bit rate mode               : Constant
Bit rate                    : 192 kb/s
Channel(s)                  : 2 channels
Channel layout              : L R
Sampling rate               : 48.0 kHz
Frame rate                  : 31.250 FPS (1536 SPF)
Bit depth                   : 16 bits
Compression mode            : Lossy
Stream size                 : 65.3 MiB (12%)
Alignment                   : Split accross interleaves
Interleave, duration        : 40  ms (1.00 video frame)
Interleave, preload duratio : 500  ms
Service kind                : Complete Main



Скриншоты:
[+] Всего файлов в раздаче - 16:
Gadalka.e01.avi557.24 MB
Gadalka.e02.avi557.29 MB
Gadalka.e03.avi557.42 MB
Gadalka.e04.avi557.41 MB
Gadalka.e05.avi557.22 MB
Gadalka.e06.avi557.06 MB
Gadalka.e07.avi557.37 MB
Gadalka.e08.avi557.12 MB
Gadalka.e09.avi557.43 MB
Gadalka.e10.avi557.34 MB
Gadalka.e11.avi557.29 MB
Gadalka.e12.avi557.22 MB
Gadalka.e13.avi556.97 MB
Gadalka.e14.avi557.06 MB
Gadalka.e15.avi557.22 MB
Gadalka.e16.avi557.42 MB

Показать еще раздачи по запросу гадалка:
2019-03-07 U Гадалка [S01] (2018) HDTV 1080i от GeneralFilm 37.02 GB ↑ 43 ↓ 92
2019-03-07 U Гадалка [S01] (2018) WEBRip от Files-x 10.00 GB ↑ 11 ↓ 56
2019-03-07 U Гадалка [01-16 из 16] (2018) SATRip 9.38 GB ↑ 113 ↓ 218
2019-03-06 U Гадалка [S01] (2018) HDTVRip от GeneralFilm 10.79 GB ↑ 68 ↓ 54
2019-03-06 U Гадалка [01х01-16 из 16] (2019) SATRip-AVC 10.28 GB ↑ 1 ↓ 24
2019-03-06 U Гадалка [01-15 из 16] (2018) SATRip 8.79 GB ↑ 115 ↓ 324
2019-03-01 U Гадалка [01-13 из 16] (2018) HDTVRip от GeneralFilm 8.80 GB ↑ 30 ↓ 48

Отзывы
Зарегистрируйтесь чтобы добавить комментарий.
Обратная связь
Copyleft ©