↑↓Torrent.by
Поиск
Логин: Регистрация
Пароль: Восстановить пароль
Загрузка...

Как я стал русским (2018) WEB-DLRip от OlLanDGroup | iTunes

Скачать kak-ya-stal-russkim-2018-web-dlrip-ot-ollandgroup-itunes.torrent
U Магнитная ссылка Размер: 746.95 MB Раздают: 313 Качают: 100 Добавлен: 2019-03-07 10:21:00
Как я стал русским (2018) WEB-DLRip от OlLanDGroup | iTunes

Как я стал русским

Год выхода: 2018
Жанр: Комедия
Режиссер: Акаки Сахелашвили, Ся Хао
В ролях: Дун Чан, Елизавета Кононова, Виталий Хаев, Грант Тохатян, Сергей Чирков, Наталья Суркова, Вадим Смирнов, Дмитрий Смирнов, Александр Семенов, Вера Гурьева

О фильме:
Понравиться отцу своей невесты — задача не из легких. С этой проблемой сталкивается и китайский парень Пен, когда отправляется в Москву за своей любовью — Ирой, даже не подозревая, какой кошмар его ждет. Ведь ее отец Анатолий совсем не готов отдавать свою дочь первому встречному, и у него на этот случай припасен свой план по избавлению…

Однако, отцу невесты и жениху придется научиться уважать друг друга, если они хотят сохранить рядом с собой девушку, которую любят больше всего на свете.

Страна: Россия, Китай
Студия: All Media Company, Централ Партнершип, Кинокомпания «Небо», Zhejiang Huace Film & TV
Продолжительность: 01:34:20
Перевод: Не требуется | iTunes

Файл
Кодек: XviD
Качество: WEB-DLRip
Видео: 688x288 (2.40:1), 24 fps, XviD ~ 970 Кbps avg, 0.204 bit/pixel
Звук: МР3, 48 kHz, 2 ch, ~128.00 kbps avg
Субтитры: Отсутствуют

Семпл

Релиз:


[+] MediaInfo
General
Complete name                  : D:Мои рипыKak.ya.stal.russkim.WEB-DLRip.OlLanDGroup.avi
Format                         : AVI
Format/Info                    : Audio Video Interleave
File size                      : 747 MiB
Duration                       : 1 h 34 min
Overall bit rate               : 1 107 kb/s
Writing application            : VirtualDubMod 1.5.10.3 | www.virtualdub-fr.org || (build 2550/release)
Writing library                : VirtualDubMod build 2550/release

Video
ID                             : 0
Format                         : MPEG-4 Visual
Format profile                 : Advanced Simple@L5
Format settings                : BVOP1
Format settings, BVOP          : 1
Format settings, QPel          : No
Format settings, GMC           : No warppoints
Format settings, Matrix        : Default (MPEG)
Codec ID                       : XVID
Codec ID/Hint                  : XviD
Duration                       : 1 h 34 min
Bit rate                       : 970 kb/s
Width                          : 688 pixels
Height                         : 288 pixels
Display aspect ratio           : 2.40:1
Frame rate                     : 24.000 FPS
Color space                    : YUV
Chroma subsampling             : 4:2:0
Bit depth                      : 8 bits
Scan type                      : Progressive
Compression mode               : Lossy
Bits/(Pixel*Frame)             : 0.204
Stream size                    : 654 MiB (88%)
Writing library                : XviD 1.2.1 (UTC 2008-12-04)

Audio
ID                             : 1
Format                         : MPEG Audio
Format version                 : Version 1
Format profile                 : Layer 3
Codec ID                       : 55
Codec ID/Hint                  : MP3
Duration                       : 1 h 34 min
Bit rate mode                  : Constant
Bit rate                       : 128 kb/s
Channel(s)                     : 2 channels
Sampling rate                  : 48.0 kHz
Frame rate                     : 41.667 FPS (1152 SPF)
Compression mode               : Lossy
Stream size                    : 86.4 MiB (12%)
Alignment                      : Aligned on interleaves
Interleave, duration           : 42  ms (1.00 video frame)
Interleave, preload duration   : 504  ms
Writing library                : LAME3.99r
Encoding settings              : -m s -V 4 -q 2 -lowpass 17 -b 128



Скриншоты:
[+] Всего файлов в раздаче - 1:
Kak.ya.stal.russkim.WEB-DLRip.OlLanDGroup.avi746.95 MB

Показать еще раздачи по запросу стал:
2019-03-08 U Как я стал русским (2018) WEB-DLRip от Generalfilm | КПК | iTunes 358.58 MB ↑ 96 ↓ 13
2019-03-08 U Как я стал русским (2018) WEB-DLRip от GeneralFilm | iTunes 745.58 MB ↑ 103 ↓ 23
2019-03-07 U Как я стал русским (2018) WEB-DL 1080p | iTunes 3.26 GB ↑ 914 ↓ 372
2019-03-07 U Как я стал русским (2018) WEB-DLRip от MegaPeer | iTunes 1.46 GB ↑ 267 ↓ 87
2019-03-07 U Как я стал русским (2018) WEB-DLRip-AVC от ExKinoRay | iTunes 1.52 GB ↑ 478 ↓ 277
2018-06-28 U Игорь Осипов - Боевой маг 1. Как я стал боевым магом (2018) MP3 622.57 MB ↑ 132 ↓ 13
2017-03-19 U Савельев Андрей - Как убивали СССР. Кто стал миллиардером (2016) RTF 1К9.02 MB ↑ 242 ↓ 6

Отзывы
Зарегистрируйтесь чтобы добавить комментарий.
Обратная связь
Copyleft ©