↑↓Torrent.by
Поиск
Логин: Регистрация
Пароль: Восстановить пароль
Загрузка...

Как я стал русским (2018) WEB-DLRip от GeneralFilm | iTunes

Скачать kak-ya-stal-russkim-2018-web-dlrip-ot-generalfilm-itunes.torrent
U Магнитная ссылка Размер: 745.58 MB Раздают: 60 Качают: 17 Добавлен: 2019-03-08 04:29:12
Как я стал русским (2018) WEB-DLRip от GeneralFilm | iTunes

Оригинальное название: Как я стал русским
Год выпуска: 2018
Жанр:  Комедия
Выпущено: Россия, Китай, All Media Company, Централ Партнершип, Кинокомпания «Небо», Zhejiang Huace Film & TV
Режиссер: Акаки Сахелашвили, Ся Хао
В ролях: Дун Чан, Елизавета Кононова, Виталий Хаев, Грант Тохатян, Сергей Чирков, Наталья Суркова, Вадим Смирнов, Дмитрий Смирнов, Александр Семенов, Вера Гурьева

О фильме: Понравиться отцу своей невесты - задача не из легких. С этой проблемой сталкивается и китайский парень Пен, когда отправляется в Москву за своей любовью - Ирой, даже не подозревая, какой кошмар его ждет. Ведь ее отец Анатолий совсем не готов отдавать свою дочь первому встречному, и у него на этот случай припасен свой план по избавлению...

Качество: WEB-DLRip
Видео: XviD build 73, 720x304 (2.37:1), 24.000 fps, 968 Kbps (0.184 bit/pixel)
Аудио: 48.0 kHz, MP3 2ch, 128 kbps
Продолжительность: 01:34:20
Перевод: Не требуется
Cубтитры: нет

Релиз:


[+] MediaInfo

General
Complete name               : D:RazdachiKak.Ja.Stal.Russkim.2018.WEB-DLRip.GeneralFilm.avi
Format                      : AVI
Format/Info                 : Audio Video Interleave
File size                   : 746 MiB
Duration                    : 1 h 34 min
Overall bit rate            : 1 105 kb/s
Writing application         : VirtualDubMod 1.5.10.3 | www.virtualdub-fr.org || (build 2550/release)
Writing library             : VirtualDubMod build 2550/release

Video
ID                          : 0
Format                      : MPEG-4 Visual
Format profile              : Advanced Simple@L5
Format settings             : BVOP1 / Custom Matrix
Format settings, BVOP       : 1
Format settings, QPel       : No
Format settings, GMC        : No warppoints
Format settings, Matrix     : Custom
Codec ID                    : XVID
Codec ID/Hint               : XviD
Duration                    : 1 h 34 min
Bit rate                    : 968 kb/s
Width                       : 720 pixels
Height                      : 304 pixels
Display aspect ratio        : 2.35:1
Frame rate                  : 24.000 FPS
Color space                 : YUV
Chroma subsampling          : 4:2:0
Bit depth                   : 8 bits
Scan type                   : Progressive
Compression mode            : Lossy
Bits/(Pixel*Frame)          : 0.184
Stream size                 : 653 MiB (88%)
Writing library             : XviD 73

Audio
ID                          : 1
Format                      : MPEG Audio
Format version              : Version 1
Format profile              : Layer 3
Codec ID                    : 55
Codec ID/Hint               : MP3
Duration                    : 1 h 34 min
Bit rate mode               : Constant
Bit rate                    : 128 kb/s
Channel(s)                  : 2 channels
Sampling rate               : 48.0 kHz
Frame rate                  : 41.667 FPS (1152 SPF)
Compression mode            : Lossy
Stream size                 : 86.4 MiB (12%)
Alignment                   : Aligned on interleaves
Interleave, duration        : 42  ms (1.00 video frame)
Interleave, preload duratio : 504  ms
Writing library             : LAME3.99r
Encoding settings           : -m s -V 4 -q 2 -lowpass 17 -b 128



Скриншоты:
[+] Всего файлов в раздаче - 1:
Kak.Ja.Stal.Russkim.2018.WEB-DLRip.GeneralFilm.avi745.58 MB

Показать еще раздачи по запросу стал:
2019-03-08 U Как я стал русским (2018) WEB-DLRip от Generalfilm | КПК | iTunes 358.58 MB ↑ 48 ↓ 12
2019-03-07 U Как я стал русским (2018) WEB-DL 1080p | iTunes 3.26 GB ↑ 824 ↓ 368
2019-03-07 U Как я стал русским (2018) WEB-DLRip от MegaPeer | iTunes 1.46 GB ↑ 54 ↓ 83
2019-03-07 U Как я стал русским (2018) WEB-DLRip от OlLanDGroup | iTunes 746.95 MB ↑ 167 ↓ 98
2019-03-07 U Как я стал русским (2018) WEB-DLRip-AVC от ExKinoRay | iTunes 1.52 GB ↑ 398 ↓ 276
2018-06-28 U Игорь Осипов - Боевой маг 1. Как я стал боевым магом (2018) MP3 622.57 MB ↑ 132 ↓ 13
2017-03-19 U Савельев Андрей - Как убивали СССР. Кто стал миллиардером (2016) RTF 1К9.02 MB ↑ 238 ↓ 6

Отзывы
Зарегистрируйтесь чтобы добавить комментарий.
Обратная связь
Copyleft ©