↑↓Torrent.by
Поиск
Логин: Регистрация
Пароль: Восстановить пароль
Загрузка...

Голос. Дети [06х01-04] (2019) HDTVRip от GeneralFilm

Скачать golos-deti-06h01-04-2019-hdtvrip-ot-generalfilm.torrent
U Магнитная ссылка Размер: 5.17 GB Раздают: 29 Качают: 100 Добавлен: 2019-03-08 04:29:31
Голос. Дети [06х01-04] (2019) HDTVRip от GeneralFilm

Год выпуска: 2019
Жанр:  ТВ-шоу, музыка
Выпущено: Россия, Первый канал, Красный квадрат
Ведущий: Дмитрий Нагиев, Аглая Шиловская

О фильме: C 15 февраля в шоу Голос дети новые наставники. В этот раз ими выступят Валерий Меладзе, Пелагея и Светлана Лобода. В шестом сезоне будут участвовать вокалисты, возраст которых не превышает 14 лет. В кастинге принимали участие не только российские, но и зарубежные вокалисты. В слепых прослушиваниях будет участвовать примерно 120 человек. В процессе слепых прослушиваний каждому из наставников нужно будет набрать команду из 15 человек. Во время поединков эти команды разобьют на тройки и из каждой тройки в следующий этап сможет попасть лишь один конкурсант.

Качество: HDTVRip
Видео: XviD, ~ 1800 Кбит/с, 720x400
Аудио: Русский (AC3, 2 ch, 192 Кбит/с)
Продолжительность: 4 x ~ 01:40:00
Перевод: Не требуется
Субтитры: нет

Релиз:

Огромная благодарность ValkiriaGF за созданный постер к раздаче
[+] MediaInfo

Общее
Полное имя                               : D:Golos.Deti.6.sezon.2019.HDTVRip.GeneralFilm1.Golos.Deti.6.sezon.2019.HDTVRip.GeneralFilm.avi
Формат                                   : AVI
Формат/Информация                        : Audio Video Interleave
Размер файла                             : 1,38 Гбайт
Продолжительность                        : 1 ч. 39 м.
Общий поток                              : 1981 Кбит/сек

Видео
Идентификатор                            : 0
Формат                                   : MPEG-4 Visual
Профиль формата                          : Advanced Simple@L5
Параметр BVOP формата                    : 1
Параметр QPel формата                    : Нет
Параметр GMC формата                     : Без точки перехода
Параметр матрицы формата                 : Выборочная
Идентификатор кодека                     : XVID
Идентификатор кодека/Подсказка           : XviD
Продолжительность                        : 1 ч. 39 м.
Битрейт                                  : 1778 Кбит/сек
Ширина                                   : 720 пикселей
Высота                                   : 400 пикселей
Соотношение сторон                       : 16:9
Частота кадров                           : 25,000 кадров/сек
Цветовое пространство                    : YUV
Субдискретизация насыщенности            : 4:2:0
Битовая глубина                          : 8 бит
Тип развёртки                            : Прогрессивная
Метод сжатия                             : С потерями
Бит/(Пиксели*Кадры)                      : 0.247
Размер потока                            : 1,24 Гбайт (90%)
Библиотека кодирования                   : XviD 1.2.1 (UTC 2008-12-04)

Аудио
Идентификатор                            : 1
Формат                                   : AC-3
Формат/Информация                        : Audio Coding 3
Расширение режима                        : CM (complete main)
Параметр Endianness формата              : Big
Идентификатор кодека                     : 2000
Продолжительность                        : 1 ч. 39 м.
Вид битрейта                             : Постоянный
Битрейт                                  : 192 Кбит/сек
Каналы                                   : 2 канала
Расположение каналов                     : Front: L R
Частота                                  : 48,0 КГц
Частота кадров                           : 31,250 кадров/сек (1536 spf)
Битовая глубина                          : 16 бит
Метод сжатия                             : С потерями
Размер потока                            : 137 Мбайт (10%)
Выравнивание                             : Соединение по промежуткам
Продолжительность промежутка             : 32  мс. (0,80 видеокадр)




Скриншоты:
[+] Всего файлов в раздаче - 4:
01.Golos.Deti.6.sezon.2019.HDTVRip.GeneralFilm.avi1.38 GB
02.Golos.Deti.6.sezon.2019.HDTVRip.GeneralFilm.avi1.28 GB
03.Golos.Deti.6.sezon.2019.HDTVRip.GeneralFilm.avi1.26 GB
04.Golos.Deti.6.sezon.2019.HDTVRip.GeneralFilm.avi1.26 GB

Показать еще раздачи по запросу голос:
2019-03-16 U Голос. Дети [06х01-05] (2019) HDTVRip от GeneralFilm 6.34 GB ↑ 77 ↓ 198
2019-03-10 U Голос ангела [01-04 из 04] (2019) SATRip-AVC от Files-x 2.49 GB ↑ 47 ↓ 24
2019-03-02 U Голос. Дети [06х01-03] (2019) HDTVRip от GeneralFilm 3.91 GB ↑ 58 ↓ 142
2019-02-23 U Голос. Дети [06х01-02] (2019) HDTVRip от GeneralFilm 1К2.65 GB ↑ 72 ↓ 90
2019-02-16 U Голос. Дети [06х01] (2019) HDTV 1080i от GeneralFilm 6.27 GB ↑ 83 ↓ 23
2019-02-16 U Голос. Дети [06х01] (2019) HDTVRip от GeneralFilm 1.38 GB ↑ 245 ↓ 45
2018-12-30 U Голос. Перезагрузка [07х01-12] (2018) HDTVRip от GeneralFilm 16.54 GB ↑ 62 ↓ 185

Отзывы
Зарегистрируйтесь чтобы добавить комментарий.
Обратная связь
Copyleft ©