↑↓Torrent.by
Поиск
Логин: Регистрация
Пароль: Восстановить пароль
Загрузка...

Порядок / Тайный орден / The Order [01x01 из 10] (2019) WEB-DLRip от OlLanDGroup | Невафильм

Скачать poryadok-taynyy-orden-the-order-01x01-iz-10-2019-web-dlrip-ot-ollandgroup-nevafilm.torrent
U Магнитная ссылка Размер: 591.52 MB Раздают: 31 Качают: 14 Добавлен: 2019-03-08 07:20:29
Порядок / Тайный орден / The Order [01x01 из 10] (2019) WEB-DLRip от OlLanDGroup | Невафильм

Название: Тайный орден (Порядок)
Оригинальное название: The Order
Год выхода: 2019
Жанр: ужасы, фэнтези, драма

Режиссер: Матиас Хендл, Лесли Хоуп, Кристин Леман
В ролях: Джейк Мэнли, Сара Грэй, Мэтт Фрюэр, Сэм Трэммелл, Макс Мартини, Адам ДиМарко, Лоуриза Тронку, Томас Эльмс, Аарон Хейл, Девери Джейкобс

О фильме: События в сериале вращаются вокруг новичка колледжа Джека Мортона, который присоединяется к легендарному тайному обществу "Орден", где он окунулся в мир магии, монстров и интриг. Поскольку Джек погружается глубже, он раскрывает тёмные семейные тайны и подземную битву между оборотнями и магическими тёмными искусствами. Орден описан как волшебное и страшное путешествие, чтобы раскрыть истинную сущность каждого ... и монстров, которые прячутся внутри.

Страна: США
Студия: Nomadic Pictures
Продолжительность: по ~ 00:50:00
Перевод: Профессиональный (дублированный) Невафильм

Файл
Кодек: XviD
Качество: WEB-DLRip
Видео: 704x400 (16:9), 23.976 fps, XviD ~ 1 350 Кbps avg, 0.200 bit/pixel
Аудио #1: МР3, 48 kHz, 2 ch, ~128.00 kbps avg | RUS | Невафильм
Аудио #2: МР3, 48 kHz, 2 ch, ~128.00 kbps avg | ENG | Original
Субтитры: Нет

Семпл

Релиз: За исходники спасибо Zgurvas


[+] MediaInfo:
General
Complete name                  : D:ФильмыThe.Order.S01.WEB-DLRip.DUB.OlLanDGroupThe.Order.S01_E01.Hell.Week.Part.One.WEB-DLRip.DUB.OlLanDGroup.avi
Format                         : AVI
Format/Info                    : Audio Video Interleave
File size                      : 592 MiB
Duration                       : 51 min 3 s
Overall bit rate               : 1 620 kb/s
Writing application            : VirtualDubMod 1.5.10.2 (build 2540/release)
Writing library                : VirtualDubMod build 2540/release

Video
ID                             : 0
Format                         : MPEG-4 Visual
Format profile                 : Advanced Simple@L5
Format settings                : BVOP1 / Custom Matrix
Format settings, BVOP          : 1
Format settings, QPel          : No
Format settings, GMC           : No warppoints
Format settings, Matrix        : Custom
Codec ID                       : XVID
Codec ID/Hint                  : XviD
Duration                       : 51 min 3 s
Bit rate                       : 1 350 kb/s
Width                          : 704 pixels
Height                         : 400 pixels
Display aspect ratio           : 16:9
Frame rate                     : 23.976 (24000/1001) FPS
Original frame rate            : 23.976 (23976/1000) FPS
Color space                    : YUV
Chroma subsampling             : 4:2:0
Bit depth                      : 8 bits
Scan type                      : Progressive
Compression mode               : Lossy
Bits/(Pixel*Frame)             : 0.200
Stream size                    : 493 MiB (83%)
Writing library                : XviD 73

Audio #1
ID                             : 1
Format                         : MPEG Audio
Format version                 : Version 1
Format profile                 : Layer 3
Codec ID                       : 55
Codec ID/Hint                  : MP3
Duration                       : 51 min 3 s
Bit rate mode                  : Constant
Bit rate                       : 128 kb/s
Channel(s)                     : 2 channels
Sampling rate                  : 48.0 kHz
Frame rate                     : 41.667 FPS (1152 SPF)
Compression mode               : Lossy
Stream size                    : 46.7 MiB (8%)
Alignment                      : Aligned on interleaves
Interleave, duration           : 42  ms (1.00 video frame)
Interleave, preload duration   : 504  ms
Writing library                : LAME3.99r
Encoding settings              : -m s -V 4 -q 2 -lowpass 17 -b 128

Audio #2
ID                             : 2
Format                         : MPEG Audio
Format version                 : Version 1
Format profile                 : Layer 3
Codec ID                       : 55
Codec ID/Hint                  : MP3
Duration                       : 51 min 3 s
Bit rate mode                  : Constant
Bit rate                       : 128 kb/s
Channel(s)                     : 2 channels
Sampling rate                  : 48.0 kHz
Frame rate                     : 41.667 FPS (1152 SPF)
Compression mode               : Lossy
Stream size                    : 46.7 MiB (8%)
Alignment                      : Aligned on interleaves
Interleave, duration           : 42  ms (1.00 video frame)
Interleave, preload duration   : 504  ms
Writing library                : LAME3.99r
Encoding settings              : -m s -V 4 -q 2 -lowpass 17 -b 128



Скриншоты:
[+] Всего файлов в раздаче - 1:
The.Order.S01_E01.Hell.Week.Part.One.WEB-DLRip.DUB.OlLanDGroup.avi591.52 MB

Похожие раздачи по запросу - порядок:
2019-03-10 U Порядок / Тайный орден / The Order [S01] (2019) WEB-DLRip | Невафильм 5.38 GB ↑ 844 ↓ 360
2019-03-10 U Порядок / Тайный орден / The Order [S01] (2019) WEB-DL 720p | Невафильм 10.02 GB ↑ 43 ↓ 37
2013-11-20 U Закон и порядок: Специальный корпус / Law & Order: Special Victims Unit / Сезон 15 серии 1-5 из 24 (2013) HDTVRip-AVC 1.27 GB ↑ 12 ↓ 287

Отзывы
Зарегистрируйтесь чтобы добавить комментарий.
Обратная связь
Copyleft ©