↑↓Torrent.by
Поиск
Логин: Регистрация
Пароль: Восстановить пароль
Загрузка...

Чернов [01-12 из 12] (2018) WEBRip от GeneralFilm

Скачать chernov-01-12-iz-2018-webrip-ot-generalfilm.torrent
U Магнитная ссылка Размер: 6.53 GB Раздают: 123 Качают: 137 Добавлен: 2019-03-08 14:31:12
Чернов [01-12 из 12] (2018) WEBRip от GeneralFilm

Оригинальное название: Чернов
Год выпуска: 2018
Жанр:  Детектив, драма, мистика
Выпущено: Россия, Всемирные Русские Студии
Режиссер: Сергей Бобров (II)
В ролях: Виктор Логинов, Эмилия Спивак, Анна Арланова, Валентина Ляпина, Александр Поликарпов, Сергей Губанов, Максим Линников, Александр Синюков, Карина Губанова, Александр Дзюба (II), Евгений Смирнов-Иваницкий, Ислам Зафесов, Елена Соловьева (II), Александр Коновалов, Анна Карышева

О фильме: В свой день рождения капитан полиции Чернов приезжает на службу и получает сообщение, что после его ухода к нему в дом ворвались бандиты и тяжело ранили его жену Людмилу. Врачи спасают Людмилу, но она остается в коме. Чернов горюет, но внезапно Людмила выходит на связь с Черновым из потустороннего мира. Она подсказывает ему, как найти и наказать ее обидчиков. С этого момента Чернов регулярно получает сообщения от Людмилы. Иногда она появляется перед ним в телевизоре, на картине или просто в воздухе. Иногда он словно переносится в тот день, когда Людмилу хотели убить – раз за разом Чернов переживает те минуты, когда он последний раз видел Людмилу в сознании. И каждая такая встреча несет в себе ключ к раскрытию очередного дела, расследуемого Черновым. И только размотав клубок из казалось бы несвязанных между собой преступлений, Чернов сможет понять, что случилось в роковой день, и изменить свое прошлое, а значит, и будущее.

Качество: WEBRip
Видео: XviD build 73, 720x400 (16:9), 25.000 fps, ~ 1500 Kbps (~ 0.215 bit/pixel)
Аудио: 48.0 kHz, AC3, 2/0 ch, 192 kbps
Продолжительность: 12 x ~ 00:45:00
Перевод: Не требуется
Cубтитры: нет

Релиз:


[+] MediaInfo

General
Complete name               : D:RazdachiChernov.2018.WEBRip.GeneralFilmChernov.e01.avi
Format                      : AVI
Format/Info                 : Audio Video Interleave
File size                   : 556 MiB
Duration                    : 39 min 19 s
Overall bit rate            : 1 978 kb/s
Writing application         : VirtualDubMod 1.5.10.3 | www.virtualdub-fr.org || (build 2550/release)
Writing library             : VirtualDubMod build 2550/release

Video
ID                          : 0
Format                      : MPEG-4 Visual
Format profile              : Advanced Simple@L5
Format settings             : BVOP1 / Custom Matrix
Format settings, BVOP       : 1
Format settings, QPel       : No
Format settings, GMC        : No warppoints
Format settings, Matrix     : Custom
Codec ID                    : XVID
Codec ID/Hint               : XviD
Duration                    : 39 min 19 s
Bit rate                    : 1 776 kb/s
Width                       : 720 pixels
Height                      : 400 pixels
Display aspect ratio        : 16:9
Frame rate                  : 25.000 FPS
Color space                 : YUV
Chroma subsampling          : 4:2:0
Bit depth                   : 8 bits
Scan type                   : Progressive
Compression mode            : Lossy
Bits/(Pixel*Frame)          : 0.247
Stream size                 : 500 MiB (90%)
Writing library             : XviD 73

Audio
ID                          : 1
Format                      : AC-3
Format/Info                 : Audio Coding 3
Commercial name             : Dolby Digital
Codec ID                    : 2000
Duration                    : 39 min 19 s
Bit rate mode               : Constant
Bit rate                    : 192 kb/s
Channel(s)                  : 2 channels
Channel layout              : L R
Sampling rate               : 48.0 kHz
Frame rate                  : 31.250 FPS (1536 SPF)
Bit depth                   : 16 bits
Compression mode            : Lossy
Stream size                 : 54.0 MiB (10%)
Alignment                   : Split accross interleaves
Interleave, duration        : 40  ms (1.00 video frame)
Interleave, preload duratio : 500  ms
Service kind                : Complete Main



Скриншоты:
[+] Всего файлов в раздаче - 12:
Chernov.e01.avi556.46 MB
Chernov.e02.avi557.08 MB
Chernov.e03.avi557.06 MB
Chernov.e04.avi557.07 MB
Chernov.e05.avi556.94 MB
Chernov.e06.avi557.28 MB
Chernov.e07.avi557.07 MB
Chernov.e08.avi557.10 MB
Chernov.e09.avi556.67 MB
Chernov.e10.avi556.31 MB
Chernov.e11.avi557.15 MB
Chernov.e12.avi556.86 MB

Показать еще раздачи по запросу чернов:
2019-03-09 U Чернов [01-12 из 12] (2018) WEBRip-AVC от Files-x 8.72 GB ↑ 58 ↓ 44
2019-03-09 U Чернов [01-12 из 12] (2018) WEBRip от Files-x 7.16 GB ↑ 37 ↓ 33
2019-03-09 U Чернов [01-12 из 12] (2018) WEBRip 720p от ExKinoRay 16.68 GB ↑ 44 ↓ 24
2019-03-07 U Чернов [01-12 из 12] (2019) SATRip-AVC 7.09 GB ↑ 47 ↓ 7
2019-03-06 U Чернов [01-06 из 12] (2018) WEBRip от Files-x 3.50 GB ↑ 85 ↓ 83
2019-03-06 U Чернов [01-06 из 12] (2018) SATRip 3.52 GB ↑ 168 ↓ 84
2019-03-05 U Чернов [01-03 из 12] (2018) WEBRip-AVC от Files-x 2.05 GB ↑ 94 ↓ 26

Отзывы
Зарегистрируйтесь чтобы добавить комментарий.
Обратная связь
Copyleft ©