↑↓Torrent.by
Поиск
Логин: Регистрация
Пароль: Восстановить пароль
Загрузка...

Человек-паук: Через вселенные / Spider-Man: Into the Spider-Verse (2018) BDRip 1080p | Sub

Скачать chelovek-pauk-cherez-vselennye-spider-man-into-the-verse-2018-bdrip-1080p-sub.torrent
U Магнитная ссылка Размер: 5.47 GB Раздают: 57 Качают: 28 Добавлен: 2019-03-09 04:26:36
Человек-паук: Через вселенные / Spider-Man: Into the Spider-Verse (2018) BDRip 1080p | Sub

Название: Человек-паук: Через вселенные
Оригинальное название: Spider-Man: Into the Spider-Verse
Год выхода: 2018
Жанр: Мультфильм, фантастика, комедия, приключения, семейный, полнометражный
Режиссер: Боб Персичетти, Питер Рэмзи, Родни Ротман
В ролях: Шамеик Мур, Джейк Джонсон, Хейли Стайнфелд, Махершала Али, Брайан Тайри Генри, Лили Томлин, Лорен Велес, Зои Кравиц, Джон Мулэйни, Кимико Гленн, Николас Кейдж, Кэтрин Хан, Лив Шрайбер, Крис Пайн, Натали Моралес, Эдвин Хэбакон, Оскар Айзек, Грета Ли, Стэн Ли, Йорма Такконе

О фильме:
Мы всё знаем о Питере Паркере. Он спас город, влюбился, а потом спасал город снова и снова… Но все это — в нашем измерении. А что если в результате работы гигантского коллайдера откроется окно из одного измерения в другое? Найдется ли в нем свой Человек-паук? И как он будет выглядеть? Приготовьтесь к тому, что в разных вселенных могут быть разные Люди-пауки и однажды им придется собраться вместе для борьбы с почти непобедимым врагом.

Страна: США
Студия: Avi Arad Productions, Columbia Pictures Corporation, Lord Miller
Продолжительность: 01:56:50
Перевод: Субтитры

Файл
Кодек: x.264
Качество: BDRip 1080p
Видео: MPEG-4 AVC, 5186 Kбит/с, 1920x808, 23.976 кадр/с
Звук: Аудио #2: Английский ( DTS, 6ch, 1509 Кбит/с, 48.0 KHz)
Субтитры: Русские (Full) Переведено студией FOCS , английские


[+] MediaInfo
Источник: Spider-Man.Into.the.Spider-Verse.2018.1080p.BluRay.x264-SPARKS
General
Unique ID                      : 178105618430368741988664992246420073407 (0x85FDE4F614303B3EBAE6E5A1CD51EBBF)
Complete name                  : Spider-Man.Into.the.Spider-Verse.2018.BDRip.1080p.Sub.mkv
Format                         : Matroska
Format version                 : Version 4 / Version 2
File size                      : 5.47 GiB
Duration                       : 1 h 56 min
Overall bit rate               : 6 698 kb/s
Encoded date                   : UTC 2019-03-08 18:24:47
Writing application            : mkvmerge v7.1.0 ('Good Love') 64bit built on Jul 27 2014 13:06:55
Writing library                : libebml v1.3.0 + libmatroska v1.4.1

Video
ID                             : 1
Format                         : AVC
Format/Info                    : Advanced Video Codec
Format profile                 : High@L4.1
Format settings, CABAC         : Yes
Format settings, RefFrames     : 5 frames
Codec ID                       : V_MPEG4/ISO/AVC
Duration                       : 1 h 56 min
Bit rate                       : 5 186 kb/s
Width                          : 1 920 pixels
Height                         : 808 pixels
Display aspect ratio           : 2.40:1
Frame rate mode                : Constant
Frame rate                     : 23.976 (24000/1001) FPS
Color space                    : YUV
Chroma subsampling             : 4:2:0
Bit depth                      : 8 bits
Scan type                      : Progressive
Bits/(Pixel*Frame)             : 0.139
Stream size                    : 4.23 GiB (77%)
Writing library                : x264 core 157 r2935 545de2f
Encoding settings              : cabac=1 / ref=5 / deblock=1:1:1 / analyse=0x3:0x113 / me=umh / subme=8 / psy=1 / psy_rd=0.40:0.00 / mixed_ref=1 / me_range=16 / chroma_me=1 / trellis=1 / 8x8dct=1 / cqm=0 / deadzone=21,11 / fast_pskip=1 / chroma_qp_offset=-2 / threads=25 / lookahead_threads=4 / sliced_threads=0 / nr=0 / decimate=1 / interlaced=0 / bluray_compat=0 / constrained_intra=0 / bframes=5 / b_pyramid=2 / b_adapt=1 / b_bias=0 / direct=3 / weightb=1 / open_gop=0 / weightp=2 / keyint=250 / keyint_min=23 / scenecut=40 / intra_refresh=0 / rc_lookahead=50 / rc=2pass / mbtree=1 / bitrate=5186 / ratetol=1.0 / qcomp=0.60 / qpmin=0 / qpmax=69 / qpstep=4 / cplxblur=20.0 / qblur=0.5 / ip_ratio=1.40 / aq=1:0.60
Language                       : English
Default                        : Yes
Forced                         : No

Audio
ID                             : 2
Format                         : DTS
Format/Info                    : Digital Theater Systems
Mode                           : 16
Format settings, Endianness    : Big
Codec ID                       : A_DTS
Duration                       : 1 h 56 min
Bit rate mode                  : Constant
Bit rate                       : 1 509 kb/s
Channel(s)                     : 6 channels
Channel positions              : Front: L C R, Side: L R, LFE
Sampling rate                  : 48.0 kHz
Frame rate                     : 93.750 FPS (512 SPF)
Bit depth                      : 24 bits
Compression mode               : Lossy
Stream size                    : 1.23 GiB (23%)
Language                       : English
Default                        : Yes
Forced                         : No

Text #1
ID                             : 3
Format                         : UTF-8
Codec ID                       : S_TEXT/UTF8
Codec ID/Info                  : UTF-8 Plain Text
Duration                       : 1 h 56 min
Bit rate                       : 89 b/s
Count of elements              : 1525
Stream size                    : 76.4 KiB (0%)
Title                          : FOCS
Language                       : Russian
Default                        : Yes
Forced                         : No

Text #2
ID                             : 4
Format                         : UTF-8
Codec ID                       : S_TEXT/UTF8
Codec ID/Info                  : UTF-8 Plain Text
Duration                       : 1 h 56 min
Bit rate                       : 81 b/s
Count of elements              : 2273
Stream size                    : 69.7 KiB (0%)
Language                       : English
Default                        : No
Forced                         : No

Menu
00:00:00.000                   : en:00:00:00.000
00:09:03.793                   : en:00:09:03.793
00:14:04.719                   : en:00:14:04.719
00:18:51.714                   : en:00:18:51.714
00:29:39.027                   : en:00:29:39.027
00:34:14.636                   : en:00:34:14.636
00:40:34.432                   : en:00:40:34.432
00:44:22.827                   : en:00:44:22.827
00:48:06.884                   : en:00:48:06.884
00:58:45.855                   : en:00:58:45.855
01:06:04.460                   : en:01:06:04.460
01:09:55.483                   : en:01:09:55.483
01:20:00.003                   : en:01:20:00.003
01:24:54.923                   : en:01:24:54.923
01:33:33.399                   : en:01:33:33.399
01:55:26.920                   : en:01:55:26.920



Скриншоты:
[+] Всего файлов в раздаче - 1:
Spider-Man.Into.the.Spider-Verse.2018.BDRip.1080p.Sub.mkv5.47 GB

Показать еще раздачи по запросу человек:
2019-05-07 U Человек-паук: Вдали от дома / Spider-Man: Far from Home (2019) WEBRip 1080p | Трейлер №2 719.73 MB ↑ 58 ↓ 27
2019-04-14 U Человек-паук: Через вселенные / Spider-Man: Into the Spider-Verse (2018) BDRip 1080p от селезень | Локализованная версия | Лицензия 9.11 GB ↑ 114 ↓ 27
2019-03-27 U Человек, который убил Гитлера и затем снежного человека / The Man Who Killed Hitler and (2018) WEB-DL 1080p от OlLanDGroup | HDRezka Studio 3.54 GB ↑ 100 ↓ 62
2019-03-22 U Человек-паук: Через вселенные / Spider-Man: Into the Spider-Verse (2018) BDRip 720p от Scarabey | iTunes 1К4.26 GB ↑ 76 ↓ 33
2019-03-19 U Человек-паук: Через вселенные / Spider-Man: Into the Spider-Verse (2018) BDRip 1080p от qqss44 & MegaPeer | iTunes 7.57 GB ↑ 66 ↓ 17
2019-03-18 U Человек-паук: Через вселенные / Spider-Man: Into the Spider-Verse (2018) BDRip 1080p от Ash61 | 3D-Video | halfOU | iTunes 14.04 GB ↑ 103 ↓ 28
2019-03-16 U Человек-паук: Через вселенные / Spider-Man: Into the Spider-Verse (2018) WEB-DLRip от Dalemake | D | Локализованный видеоряд 1.47 GB ↑ 109 ↓ 17

Отзывы
Зарегистрируйтесь чтобы добавить комментарий.
Обратная связь
Copyleft ©