↑↓Torrent.by
Поиск
Логин: Регистрация
Пароль: Восстановить пароль
Загрузка...

Фантастические твари: Преступления Грин-де-Вальда / Fantastic Beasts: The Crimes of Grindelwald (2018) BDRip 1080p от qqss44 & MegaPeer | Лицензия

Скачать fantasticheskie-tvari-prestupleniya-grin-de-valda-fantastic-beasts-the-crimes-of-grindelwald-2018-bdrip-1080p-ot-qqss44-megapeer-licenziya.torrent
U Магнитная ссылка Размер: 7.58 GB Раздают: 58 Качают: 28 Добавлен: 2019-03-09 04:27:14
Фантастические твари: Преступления Грин-де-Вальда / Fantastic Beasts: The Crimes of Grindelwald (2018) BDRip 1080p от qqss44 & MegaPeer | Лицензия

Анонсы 1080p от qqss44

Информация о фильме
Название: Фантастические твари: Преступления Грин-де-Вальда
Оригинальное название: Fantastic Beasts: The Crimes of Grindelwald
Год выпуска: 2018
Жанр: Фэнтези, приключения, семейный
Режиссер: Дэвид Йейтс
В ролях: Эдди Редмэйн, Джонни Депп, Кэтрин Уотерстон, Элисон Судол, Дэн Фоглер, Эзра Миллер, Джуд Лоу, Кевин Гатри, Кармен Эджого, Вольф Рот, Зои Кравиц, Каллум Тернер, Дерек Ридделл, Корнелл Джон, Клаудия Ким, Ингвар Эггерт Сигюрдссон, Поппи Корби-Туч, Эндрю Тернер, Дэвид Сакурай, Клавдий Питерс

О фильме:
Могущественный тёмный волшебник Геллерт Грин-де-Вальд пойман в Штатах, но не собирается молча сидеть в темнице и устраивает грандиозный побег. Теперь ничто не помешает ему добиться своей цели - установить превосходство волшебников над всеми немагическими существами на планете. Чтобы сорвать планы Грин-де-Вальда, Альбус Дамблдор обращается к своему бывшему студенту Ньюту Саламандеру, который соглашается помочь, не подозревая, какая опасность ему грозит. В раскалывающемся на части волшебном мире любовь и верность проверяются на прочность, а конфликт разделяет даже настоящих друзей и членов семей.

Страна: Великобритания, США
Студия: Heyday Films, Warner Bros
Продолжительность: 02:13:50
Перевод: Дублированный | Лицензия BD EUR

Файл
Формат: MKV, BDRip 1080p
Видео: MPEG-4 AVC, 7666 Кбит/с, 1920x800
Aудио#1: [RUS] AC3 | 48 KHz | 5.1 (Front: L С R Side: L R) + LFE | ~448 kbps
Субтитры: русские форсированные (стилизованные, анимированные, вшиты в видео) + полные
Релиз от:


[+] МИ

Общее
Уникальный идентификатор                 : 186886810108217680501473823182253642932 (0x8C9917232224DD80AD6BBB644946D4B4)
Полное имя                               : H:Fantastic.Beasts.The.Crimes.of.Grindelwald.(2018).BDRip-1080p.MegaPeer.(qqss44).mkv
Формат                                   : Matroska
Версия формата                           : Version 2
Размер файла                             : 7,58 Гбайт
Продолжительность                        : 2 ч. 13 м.
Общий поток                              : 8110 Кбит/сек
Название фильма                          : Fantastic.Beasts.The.Crimes.of.Grindelwald.(2018).BDRip-1080p.MegaPeer.(qqss44)
Дата кодирования                         : UTC 2019-03-08 19:00:19
Программа кодирования                    : mkvmerge v7.8.0 ('River Man') 32bit built on Apr  3 2015 12:11:22
Библиотека кодирования                   : libebml v1.3.1 + libmatroska v1.4.2

Видео
Идентификатор                            : 1
Формат                                   : AVC
Формат/Информация                        : Advanced Video Codec
Профиль формата                          : High@L4.1
Параметр CABAC формата                   : Да
Параметр ReFrames формата                : 5 кадров
Идентификатор кодека                     : V_MPEG4/ISO/AVC
Продолжительность                        : 2 ч. 13 м.
Битрейт                                  : 7666 Кбит/сек
Ширина                                   : 1920 пикселей
Высота                                   : 800 пикселей
Соотношение сторон                       : 2,40:1
Режим частоты кадров                     : Постоянный
Частота кадров                           : 23,976 (24000/1001) кадра/сек
Цветовое пространство                    : YUV
Субдискретизация насыщенности            : 4:2:0
Битовая глубина                          : 8 бит
Тип развёртки                            : Прогрессивная
Бит/(Пиксели*Кадры)                      : 0.208
Размер потока                            : 7,01 Гбайт (92%)
Библиотека кодирования                   : x264 core 152 r2851 ba24899
Настройки программы                      : cabac=1 / ref=5 / deblock=1:-3:-3 / analyse=0x3:0x113 / me=umh / subme=11 / psy=1 / psy_rd=1.00:0.00 / mixed_ref=1 / me_range=32 / chroma_me=1 / trellis=2 / 8x8dct=1 / cqm=0 / deadzone=21,11 / fast_pskip=0 / chroma_qp_offset=-2 / threads=12 / lookahead_threads=2 / sliced_threads=0 / nr=0 / decimate=0 / interlaced=0 / bluray_compat=0 / constrained_intra=0 / bframes=8 / b_pyramid=2 / b_adapt=2 / b_bias=0 / direct=3 / weightb=1 / open_gop=0 / weightp=2 / keyint=250 / keyint_min=23 / scenecut=40 / intra_refresh=0 / rc_lookahead=40 / rc=2pass / mbtree=0 / bitrate=7666 / ratetol=1.0 / qcomp=0.70 / qpmin=0 / qpmax=69 / qpstep=4 / cplxblur=20.0 / qblur=0.5 / vbv_maxrate=50000 / vbv_bufsize=62500 / nal_hrd=none / filler=0 / ip_ratio=1.40 / pb_ratio=1.30 / aq=3:0.70
Язык                                     : English
Default                                  : Да
Forced                                   : Нет

Аудио
Идентификатор                            : 2
Формат                                   : AC-3
Формат/Информация                        : Audio Coding 3
Расширение режима                        : CM (complete main)
Параметр Endianness формата              : Big
Идентификатор кодека                     : A_AC3
Продолжительность                        : 2 ч. 13 м.
Вид битрейта                             : Постоянный
Битрейт                                  : 448 Кбит/сек
Каналы                                   : 6 каналов
Расположение каналов                     : Front: L C R, Side: L R, LFE
Частота                                  : 48,0 КГц
Частота кадров                           : 31,250 кадров/сек (1536 spf)
Метод сжатия                             : С потерями
Размер потока                            : 429 Мбайт (6%)
Язык                                     : Russian
Default                                  : Да
Forced                                   : Нет

Текст
Идентификатор                            : 3
Формат                                   : UTF-8
Идентификатор кодека                     : S_TEXT/UTF8
Идентификатор кодека/Информация          : UTF-8 Plain Text
Заголовок                                : FULL
Язык                                     : Russian
Default                                  : Нет
Forced                                   : Нет

Меню
00:00:00.000                             : :Capítulo 01
00:07:15.310                             : :Capítulo 02
00:21:39.381                             : :Capítulo 03
00:32:56.850                             : :Capítulo 04
00:41:41.124                             : :Capítulo 05
00:50:26.190                             : :Capítulo 06
00:58:21.540                             : :Capítulo 07
01:12:02.860                             : :Capítulo 08
01:20:23.610                             : :Capítulo 09
01:34:50.059                             : :Capítulo 10
01:43:08.557                             : :Capítulo 11
01:51:42.237                             : :Capítulo 12
02:00:31.641                             : :Capítulo 13




Скриншоты:
[+] Всего файлов в раздаче - 1:
Fantastic.Beasts.The.Crimes.of.Grindelwald.(2018).BDRip-1080p.MegaPeer.(qqss44).mkv7.58 GB

Показать еще раздачи по запросу фантастические:
2019-03-13 U Фантастические твари: Преступления Грин-де-Вальда / Fantastic Beasts: The Crimes of Grindelwald (2018) BDRip 1080p от Ash61 | 3D-Video | halfOU | Лицензия 11.48 GB ↑ 66 ↓ 47
2019-03-10 U Фантастические твари: Преступления Грин-де-Вальда / Fantastic Beasts: The Crimes of Grindelwald (2018) BDRip 720p от Scarabey | Лицензия 5.56 GB ↑ 90 ↓ 20
2019-03-09 U Фантастические твари: Преступления Грин-де-Вальда / Fantastic Beasts: The Crimes of Grindelwald (2018) BDRip-AVC от HELLYWOOD | Лицензия 1К2.92 GB ↑ 111 ↓ 31
2019-03-09 U Фантастические твари: Преступления Грин-де-Вальда / Fantastic Beasts: The Crimes of Grindelwald (2018) BDRip от MegaPeer | Лицензия 1.46 GB ↑ 177 ↓ 83
2019-03-09 U Фантастические твари: Преступления Грин-де-Вальда / Fantastic Beasts: The Crimes of Grindelwald (2018) UHD BDRemux 2160p от селезень | 4K | HDR | D, P | Лицензия 51.63 GB ↑ 34 ↓ 27
2019-03-09 U Фантастические твари: Преступления Грин-де-Вальда / Fantastic Beasts: The Crimes of Grindelwald (2018) BDRip от MegaPeer | Лицензия 2.18 GB ↑ 48 ↓ 8
2019-03-09 U Фантастические твари: Преступления Грин-де-Вальда / Fantastic Beasts: The Crimes of Grindelwald (2018) BDRip 1080p от селезень | D, P | Лицензия 10.34 GB ↑ 48 ↓ 15

Отзывы
Зарегистрируйтесь чтобы добавить комментарий.
Обратная связь
Copyleft ©