↑↓Torrent.by
Поиск
Логин: Регистрация
Пароль: Восстановить пароль
Загрузка...

Инстаграмщица (2018) SATRip-AVC

Скачать instagramschica-2018-satrip-avc.torrent
U Магнитная ссылка Размер: 748.13 MB Раздают: 41 Качают: 24 Добавлен: 2019-03-09 04:27:35
Инстаграмщица (2018) SATRip-AVC

Оригинальное название: Инстаграмщица
Год выхода: 2018
Жанр: комедия

Режиссер: Арыстан Каунев
Сценарий: Арыстан Каунев

В ролях: Анара Батырхан, Куат Садыков, Шарип Серик, Абунасыр Сериков, Толепберген Байсакалов, Айым Сейтметова и др.

О фильме:
Фильм рассказывает историю инстаграмщицы Айнуры. У девушки под рукой миллион подписчиков в Instagram, хорошие подруги и верный возлюбленный. Казалось бы, что может помешать счастью? Но неожиданно девушка обнаруживает, что ее аккаунт @ainura_official взломали. Привычный мир Айнуры начинает рушиться.

Страна: Казахстан
Продолжительность: 01:15:56
Язык: Русский, Казахский

Файл
Формат видео: MKV
Качество: SATRip-AVC
Видео: 720x304 (2.35:1), 25.000 fps, AVC MPEG-4 (х.264), High@L3.1 ~1184 kbps, 0.216 bit/pixel
Аудио: 48 kHz, AC3 Dolby Digital, 2/0 (L,R) ch, ~192 kbps
Субтитры: русские (на казахскую речь) [вшитые]

Реклама отсутствует.


[+] MediaInfo
General
Unique ID                        : 127158743268370309692193339053753518838 (0x5FA9E21524ABBCB568EE897FD7A04AF6)
Complete name                    : E:Instagramshiza.2018_Klayd X.mkv
Format                           : Matroska
File size                        : 748 MiB
Duration                         : 1h 15mn
Overall bit rate                 : 1 377 Kbps
Encoded date                     : UTC 2019-03-04 10:22:43
Writing application              : mkvmerge v27.0.0 ('Metropolis') 32-bit
Writing library                  : libebml v1.3.6 + libmatroska v1.4.9

Video
ID                               : 1
Format                           : AVC
Format/Info                      : Advanced Video Codec
Format profile                   : High@L3.1
Format settings, CABAC           : Yes
Format settings, ReFrames        : 16 frames
Codec ID                         : V_MPEG4/ISO/AVC
Duration                         : 1h 15mn
Bit rate                         : 1 184 Kbps
Width                            : 720 pixels
Height                           : 304 pixels
Display aspect ratio             : 2.35:1
Frame rate                       : 25.000 fps
Color space                      : YUV
Chroma subsampling               : 4:2:0
Bit depth                        : 8 bits
Scan type                        : Progressive
Bits/(Pixel*Frame)               : 0.216
Stream size                      : 629 MiB (84%)
Writing library                  : x264 core 146 r2538 121396c
Encoding settings                : cabac=1 / ref=16 / deblock=1:-2:-1 / analyse=0x3:0x133 / me=tesa / subme=10 / psy=1 / psy_rd=1.00:0.20 / mixed_ref=1 / me_range=32 / chroma_me=1 / trellis=2 / 8x8dct=1 / cqm=0 / deadzone=21,11 / fast_pskip=1 / chroma_qp_offset=-3 / threads=3 / lookahead_threads=1 / sliced_threads=0 / nr=0 / decimate=1 / interlaced=0 / bluray_compat=0 / constrained_intra=0 / bframes=7 / b_pyramid=2 / b_adapt=2 / b_bias=0 / direct=3 / weightb=1 / open_gop=0 / weightp=2 / keyint=250 / keyint_min=25 / scenecut=40 / intra_refresh=0 / rc_lookahead=60 / rc=2pass / mbtree=1 / bitrate=1184 / ratetol=1.0 / qcomp=0.60 / qpmin=0 / qpmax=69 / qpstep=4 / cplxblur=20.0 / qblur=0.5 / ip_ratio=1.40 / aq=1:1.00
Language                         : English

Audio
ID                               : 2
Format                           : AC-3
Format/Info                      : Audio Coding 3
Mode extension                   : CM (complete main)
Codec ID                         : A_AC3
Duration                         : 1h 15mn
Bit rate mode                    : Constant
Bit rate                         : 192 Kbps
Channel(s)                       : 2 channels
Channel positions                : Front: L R
Sampling rate                    : 48.0 KHz
Bit depth                        : 16 bits
Compression mode                 : Lossy
Stream size                      : 104 MiB (14%)



Скриншоты:
[+] Всего файлов в раздаче - 1:
Instagramshiza.2018_Klayd X.mkv748.13 MB

Отзывы
Зарегистрируйтесь чтобы добавить комментарий.
Обратная связь
Copyleft ©