↑↓Torrent.by
Поиск
Логин: Регистрация
Пароль: Восстановить пароль
Загрузка...

Недруги / Hostiles (2017) BDRip 720p от селезень | Лицензия

Скачать nedrugi-hostiles-2017-bdrip-720p-ot-selezen-licenziya.torrent
U Магнитная ссылка Размер: 7.77 GB Раздают: 295 Качают: 134 Добавлен: 2019-03-09 18:06:32
Недруги / Hostiles (2017) BDRip 720p от селезень | Лицензия

Название: Недруги
Оригинальное название: Hostiles
Год выхода: 2017
Жанр: Драма, приключения, вестерн
Режиссер: Скотт Купер
В ролях: Кристиан Бэйл, Розамунд Пайк, Уэс Стьюди, Рори Кокрейн, Джесси Племонс, Джонатан Мэйджерс, Бен Фостер, Адам Бич, К`Орианка Килчер, Тимоти Шаламе, Скотт Шеперд, Ава Купер, Стелла Купер, Дэвид Мидфандер, Стэффорд Дуглас, Стивен Лэнг, Билл Кэмп

О фильме: Когда на твоих глазах льется кровь, когда ты вынужден убивать, ты превращаешься в зверя... После долгих лет войны он дышал злобой, проклинал краснокожих, в каждом из них он видел врага. На исходе войны капитан Блокер получает приказ доставить на родину в Монтану умирающего вождя по кличке Желтый Ястреб. В цепях и кандалах он ведет семью индейцев через земли, где обитают враждебные племена и скрываются беглые преступники, где за каждым камнем поджидает смертельная опасность. Где-то на пути к отряду Блокера пристает обезумевшая от горя вдова, на глазах которой команчи убили ее детей. Эта встреча меняет всё...

Страна: США,
Студия: Grisbi Productions, Le, Waypoint Entertainment
Продолжительность: 02:14:18
Перевод: Дублированный | Лицензия

Качество: BDRip 720p
Видео: MPEG-4 AVC, 1280x536, 5500 Kbit/s, 23.976 fps
Звук:
Аудио #01: 48 kHz, DTS, 5.1, 1510 Kbps | Лицензия | RUS |
Аудио #02: 48 kHz, AC3, 5.1, 640 Kbps | Лицензия | RUS |
Аудио #03: 48 kHz, AC3, 5.1, 640 Kbps | Оригинал |  ENG |
Субтитры: Русские (Forced, full), английские

Релиз:


[+] MI
General
Unique ID                   : 302194663695923881358643843414552721620 (0xE358933F4C4A82A3AC77B798ECDBB8D4)
Complete name               : D:Video111Hostiles.2017.Lic.BDRip.720p.seleZen.mkv
Format                      : Matroska
Format version              : Version 4
File size                   : 7.77 GiB
Duration                    : 2 h 14 min
Overall bit rate            : 8 282 kb/s
Movie name                  : Hostiles 2017 from селезень
Encoded date                : UTC 2019-03-08 23:08:49
Writing application         : mkvmerge v31.0.0 ('Dolores In A Shoestand') 64-bit
Writing library             : libebml v1.3.6 + libmatroska v1.4.9

Video
ID                          : 1
Format                      : AVC
Format/Info                 : Advanced Video Codec
Format profile              : High@L4.1
Format settings             : CABAC / 12 Ref Frames
Format settings, CABAC      : Yes
Format settings, ReFrames   : 12 frames
Codec ID                    : V_MPEG4/ISO/AVC
Duration                    : 2 h 14 min
Bit rate                    : 5 500 kb/s
Width                       : 1 280 pixels
Height                      : 536 pixels
Display aspect ratio        : 2.40:1
Frame rate mode             : Constant
Frame rate                  : 23.976 (24000/1001) FPS
Color space                 : YUV
Chroma subsampling          : 4:2:0
Bit depth                   : 8 bits
Scan type                   : Progressive
Bits/(Pixel*Frame)          : 0.334
Stream size                 : 5.15 GiB (66%)
Writing library             : x264 core 155 r2901 7d0ff22
Encoding settings           : cabac=1 / ref=12 / deblock=1:-3:-3 / analyse=0x3:0x113 / me=umh / subme=10 / psy=1 / psy_rd=1.05:0.10 / mixed_ref=1 / me_range=32 / chroma_me=1 / trellis=2 / 8x8dct=1 / cqm=0 / deadzone=21,11 / fast_pskip=0 / chroma_qp_offset=-2 / threads=12 / lookahead_threads=1 / sliced_threads=0 / nr=0 / decimate=1 / interlaced=0 / bluray_compat=0 / constrained_intra=0 / bframes=6 / b_pyramid=2 / b_adapt=2 / b_bias=0 / direct=3 / weightb=1 / open_gop=0 / weightp=2 / keyint=250 / keyint_min=23 / scenecut=40 / intra_refresh=0 / rc=2pass / mbtree=0 / bitrate=5500 / ratetol=1.0 / qcomp=0.70 / qpmin=0 / qpmax=69 / qpstep=4 / cplxblur=20.0 / qblur=0.5 / ip_ratio=1.40 / pb_ratio=1.30 / aq=3:1.00
Language                    : English
Default                     : Yes
Forced                      : No

Audio #1
ID                          : 2
Format                      : DTS
Format/Info                 : Digital Theater Systems
Codec ID                    : A_DTS
Duration                    : 2 h 14 min
Bit rate mode               : Constant
Bit rate                    : 1 509 kb/s
Channel(s)                  : 6 channels
Channel layout              : C L R Ls Rs LFE
Sampling rate               : 48.0 kHz
Frame rate                  : 93.750 FPS (512 SPF)
Bit depth                   : 24 bits
Compression mode            : Lossy
Stream size                 : 1.42 GiB (18%)
Title                       : Dub [License]
Language                    : Russian
Default                     : Yes
Forced                      : Yes

Audio #2
ID                          : 3
Format                      : AC-3
Format/Info                 : Audio Coding 3
Commercial name             : Dolby Digital
Codec ID                    : A_AC3
Duration                    : 2 h 14 min
Bit rate mode               : Constant
Bit rate                    : 640 kb/s
Channel(s)                  : 6 channels
Channel layout              : L R C LFE Ls Rs
Sampling rate               : 48.0 kHz
Frame rate                  : 31.250 FPS (1536 SPF)
Bit depth                   : 16 bits
Compression mode            : Lossy
Stream size                 : 615 MiB (8%)
Title                       : Dub [License]
Language                    : Russian
Service kind                : Complete Main
Default                     : No
Forced                      : No

Audio #3
ID                          : 4
Format                      : AC-3
Format/Info                 : Audio Coding 3
Commercial name             : Dolby Digital
Codec ID                    : A_AC3
Duration                    : 2 h 14 min
Bit rate mode               : Constant
Bit rate                    : 640 kb/s
Channel(s)                  : 6 channels
Channel layout              : L R C LFE Ls Rs
Sampling rate               : 48.0 kHz
Frame rate                  : 31.250 FPS (1536 SPF)
Bit depth                   : 16 bits
Compression mode            : Lossy
Stream size                 : 615 MiB (8%)
Title                       : Original
Language                    : English
Service kind                : Complete Main
Default                     : No
Forced                      : No

Text #1
ID                          : 5
Format                      : UTF-8
Codec ID                    : S_TEXT/UTF8
Codec ID/Info               : UTF-8 Plain Text
Duration                    : 1 h 37 min
Bit rate                    : 5 b/s
Count of elements           : 84
Stream size                 : 3.73 KiB (0%)
Title                       : Forced
Language                    : Russian
Default                     : Yes
Forced                      : Yes

Text #2
ID                          : 6
Format                      : UTF-8
Codec ID                    : S_TEXT/UTF8
Codec ID/Info               : UTF-8 Plain Text
Duration                    : 2 h 3 min
Bit rate                    : 45 b/s
Count of elements           : 910
Stream size                 : 41.4 KiB (0%)
Title                       : Full
Language                    : Russian
Default                     : No
Forced                      : No

Text #3
ID                          : 7
Format                      : UTF-8
Codec ID                    : S_TEXT/UTF8
Codec ID/Info               : UTF-8 Plain Text
Duration                    : 2 h 3 min
Bit rate                    : 24 b/s
Count of elements           : 739
Stream size                 : 21.9 KiB (0%)
Title                       : Full
Language                    : English
Default                     : No
Forced                      : No

Menu
00:00:00.000                : en:00:00:00.000
00:08:18.540                : en:00:08:18.540
00:20:32.064                : en:00:20:32.064
00:25:28.819                : en:00:25:28.819
00:34:48.336                : en:00:34:48.336
00:40:23.546                : en:00:40:23.546
00:51:40.597                : en:00:51:40.597
01:00:18.615                : en:01:00:18.615
01:08:17.176                : en:01:08:17.176
01:14:52.071                : en:01:14:52.071
01:25:29.249                : en:01:25:29.249
01:34:35.461                : en:01:34:35.461
01:43:05.513                : en:01:43:05.513
01:50:45.973                : en:01:50:45.973
01:54:10.677                : en:01:54:10.677
02:05:21.806                : en:02:05:21.806



Скриншоты:
[+] Всего файлов в раздаче - 1:
Hostiles.2017.Lic.BDRip.720p.seleZen.mkv7.77 GB

Показать еще раздачи по запросу недруги:
2019-03-10 U Недруги / Hostiles (2017) BDRip 720p от k.e.n & MegaPeer | D, A | Лицензия 5.75 GB ↑ 106 ↓ 44
2019-03-10 U Недруги / Hostiles (2017) BDRip от MegaPeer | Rus Transfer | Лицензия 2.18 GB ↑ 93 ↓ 17
2019-03-09 U Недруги / Hostiles (2017) BDRip-AVC от OlLanDGroup | Лицензия 2.36 GB ↑ 154 ↓ 36
2019-03-09 U Недруги / Hostiles (2017) BDRip от MegaPeer | Rus Transfer | Лицензия 1.46 GB ↑ 196 ↓ 98
2019-03-09 U Недруги / Hostiles (2017) BDRip 1080p от селезень | Лицензия 13.36 GB ↑ 386 ↓ 229
2019-03-09 U Недруги / Hostiles (2017) BDRip от MegaPeer | Лицензия 1.46 GB ↑ 43 ↓ 18
2018-04-21 U Недруги / Hostiles (2017) HDRip от Scarabey | iTunes 796.19 MB ↑ 105 ↓ 20

Отзывы
Зарегистрируйтесь чтобы добавить комментарий.
Обратная связь
Copyleft ©