↑↓Torrent.by
Поиск
Логин: Регистрация
Пароль: Восстановить пароль
Загрузка...

Время расцвета / The Unthinkable / Den blomstertid nu kommer (2018) BDRip | L2

Скачать vremya-rascveta-the-unthinkable-den-blomstertid-nu-kommer-2018-bdrip-l2.torrent
U Магнитная ссылка Размер: 1.46 GB Раздают: 179 Качают: 48 Добавлен: 2019-03-09 18:06:46
Время расцвета / The Unthinkable / Den blomstertid nu kommer (2018) BDRip | L2

Название: Время расцвета
Оригинальное название: Den blomstertid nu kommer / The Unthinkable
Год выпуска: 2018
Жанр:  Боевик, триллер, драма, мелодрама
Режиссер: Виктор Данелл / Victor Danell
В ролях: Кристоффер Нурденрут, Лиза Хенни, Йеспер Баркселиус, Пиа Хальворсен, Магнус Сандберг, Кристер Керн, Карин Бертлинг, Ульрика Бэкстром, Алексей Манвелов, Ингве Далберг

Описание: Житель скандинавского городка, обычный юноша вынужден столкнуться со сложными обстоятельствами, чтобы выстояв, уцелеть на фоне всеобщей катастрофы, охватившей человечество. Внезапное распространение вируса неизвестного происхождения, делает дальнейшее существование людей практически невозможным. Быстро распространяющаяся пандемия вынуждает уцелевших горожан приспосабливаться, практически минимизируя шансы не подхватить заразу. О противостоянии пока не может быть речи, паника охватившая людей мешает логическому мышлению, сказывается полное отсутствие опыта действий в подобных ситуациях. Если люди не отыщут способов борьбы или локализации смертельного процесса, они могут забыть о появлении потомков, поставив точку на цивилизации.

Страна: Швеция
Продолжительность: 02:09:17
Перевод: Любительский двухголосый | Студия "ПАНДОРА"

Файл
Качество: BDRip | The.Unthinkable.2018.MULTi.COMPLETE.BLURAY-GMB
Формат: AVI
Видео: 720x304 (2.37:1), 24.000 fps, XviD build 73 ~1418 kbps avg, 0.27 bit/pixel
Аудио: 48 kHz, AC3 Dolby Digital, 2/0 (L,R) ch, ~192 kbps
Субтитры: Нет


[+] MediaInfo
Формат                                   : AVI
Формат/Информация                        : Audio Video Interleave
Размер файла                             : 1,46 Гбайт
Продолжительность                        : 2 ч. 9 м.
Общий поток                              : 1620 Кбит/сек
Программа кодирования                    : VirtualDubMod 1.5.10.3
Библиотека кодирования                   : VirtualDubMod build 2550/release

Видео
Идентификатор                            : 0
Формат                                   : MPEG-4 Visual
Профиль формата                          : Advanced Simple@L5
Настройки формата                        : BVOP1 / Custom Matrix
Параметр BVOP формата                    : 1
Параметр QPel формата                    : Нет
Параметр GMC формата                     : Без точки перехода
Параметр матрицы формата                 : Выборочная
Идентификатор кодека                     : XVID
Идентификатор кодека/Подсказка           : XviD
Продолжительность                        : 2 ч. 9 м.
Битрейт                                  : 1419 Кбит/сек
Ширина                                   : 720 пикселей
Высота                                   : 304 пикселя
Соотношение сторон                       : 2,35:1
Частота кадров                           : 24,000 кадра/сек
Цветовое пространство                    : YUV
Субдискретизация насыщенности            : 4:2:0
Битовая глубина                          : 8 бит
Тип развёртки                            : Прогрессивная
Метод сжатия                             : С потерями
Бит/(Пиксели*Кадры)                      : 0.270
Размер потока                            : 1,28 Гбайт (88%)
Библиотека кодирования                   : XviD 73

Аудио
Идентификатор                            : 1
Формат                                   : AC-3
Формат/Информация                        : Audio Coding 3
Коммерческое название                    : Dolby Digital
Идентификатор кодека                     : 2000
Продолжительность                        : 2 ч. 9 м.
Вид битрейта                             : Постоянный
Битрейт                                  : 192 Кбит/сек
Каналы                                   : 2 канала
Channel layout                           : L R
Частота                                  : 48,0 КГц
Частота кадров                           : 31,250 кадров/сек (1536 SPF)
Битовая глубина                          : 16 бит
Метод сжатия                             : С потерями
Размер потока                            : 178 Мбайт (12%)
Выравнивание                             : Разделение по промежуткам
Продолжительность промежутка             : 42  мс. (1,00 видеокадр)
Время предзагрузки промежутка            : 500  мс



Скриншоты:
[+] Всего файлов в раздаче - 1:
Время расцвета_2018_BDRip.avi1.46 GB

Показать еще раздачи по запросу время:
Вчера U Время возмездия / Destroyer (2018) DVDScr | HDRezka Studio 1.45 GB ↑ 230 ↓ 140
2018-09-14 U Смешное время [01-11] (2018) WEB-DLRip 3.42 GB ↑ 58 ↓ 73
2018-07-17 U Виталий Лозовский - Как выжить и провести время с пользой в тюрьме (2016) FB2 3.06 MB ↑ 425 ↓ 0
2018-06-26 U Девочка, покорившая время / The Girl Who Leapt Through Time / Toki wo Kakeru Shojo (2006) BDRip от HQCLUB 1.46 GB ↑ 395 ↓ 52
2018-06-19 U Изменяющий время / Преобразователь времени / Time Changer (2002) WEB-DL 1080p | P 8.47 GB ↑ 111 ↓ 31
2018-06-15 U Когда кончилось время / When Time Ran Out... (1980) DVDRip | P2, A 1.59 GB ↑ 36 ↓ 16
2018-05-22 U Время псов / The Hunter's Prayer (2017) BDRip-AVC от HELLYWOOD | Лицензия 1.46 GB ↑ 68 ↓ 17

Отзывы
Зарегистрируйтесь чтобы добавить комментарий.
Обратная связь
Copyleft ©