↑↓Torrent.by
Поиск
Логин: Регистрация
Пароль: Восстановить пароль
Загрузка...

Недруги / Hostiles (2017) BDRip-AVC от OlLanDGroup | Лицензия

Скачать nedrugi-hostiles-2017-bdrip-avc-ot-ollandgroup-licenziya.torrent
U Магнитная ссылка Размер: 2.36 GB Раздают: 154 Качают: 36 Добавлен: 2019-03-09 18:06:55
Недруги / Hostiles (2017) BDRip-AVC от OlLanDGroup | Лицензия

Недруги / Hostiles
«We are all hostiles»

Год выпуска: 2017
Страна: США
Производство: Grisbi Productions, Le, Waypoint Entertainment
Жанр:  Драма, приключения, вестерн

Режиссёр: Скотт Купер
В ролях: Кристиан Бэйл, Розамунд Пайк, Уэс Стьюди, Рори Кокрейн, Джесси Племонс, Джонатан Мэйджерс, Бен Фостер, Адам Бич, К`Орианка Килчер, Тимоти Шаламе, Скотт Шеперд, Ава Купер, Стелла Купер, Дэвид Мидфандер, Стэффорд Дуглас, Стивен Лэнг, Билл Кэмп

Перевод: Дублированный | Лицензия
Субтитры: Русские (форс., полные), английские
Реклама: Отсутствует

Описание: Когда на твоих глазах льется кровь, когда ты вынужден убивать, ты превращаешься в зверя... После долгих лет войны он дышал злобой, проклинал краснокожих, в каждом из них он видел врага. На исходе войны капитан Блокер получает приказ доставить на родину в Монтану умирающего вождя по кличке Желтый Ястреб. В цепях и кандалах он ведет семью индейцев через земли, где обитают враждебные племена и скрываются беглые преступники, где за каждым камнем поджидает смертельная опасность. Где-то на пути к отряду Блокера пристает обезумевшая от горя вдова, на глазах которой команчи убили ее детей. Эта встреча меняет всё...

Качество: BDRip-AVC
Продолжительность: 02:14:18

Формат: MKV
Видео кодек: MPEG-4 AVC
Аудио кодек: AC3
Видео: 1024x428 (2.40:1), 23,976 fps, x264 ~1 614 kbps avg, 0.154 bit/pixel
Аудио #1: 48 kHz, AC3 Dolby Digital, 3/2 (L,C,R,l,r) + LFE ch, ~448.00 kbps avg | RUS (Лицензия)
Аудио #2: 48 kHz, AC3 Dolby Digital, 3/2 (L,C,R,l,r) + LFE ch, ~448.00 kbps avg | ENG

Дата премьеры (мир): 2 сентября 2017
Дата премьеры (РФ): 15 февраля 2018, «Парадиз»

Релиз: Rip by:


[+] MediaInfo

Общее
Уникальный идентификатор                 : 173662820291851272530143885730897616864 (0x82A63E19E60BE6629A9D0CA7586E5FE0)
Полное имя                               : F:OlLanDGroupHostiles.2017.BDRip(AVC).OlLanDGroup.mkv
Формат                                   : Matroska
Версия формата                           : Version 4 / Version 2
Размер файла                             : 2,36 Гбайт
Продолжительность                        : 2 ч. 14 м.
Общий поток                              : 2511 Кбит/сек
Название фильма                          : Hostiles.2017   #TorpedoUK#
Дата кодирования                         : UTC 2019-03-09 02:25:07
Программа кодирования                    : mkvmerge v29.0.0 ('Like It Or Not') 64-bit
Библиотека кодирования                   : libebml v1.3.6 + libmatroska v1.4.9

Видео
Идентификатор                            : 1
Формат                                   : AVC
Формат/Информация                        : Advanced Video Codec
Профиль формата                          : High@L4.1
Параметр CABAC формата                   : Да
Параметр ReFrames формата                : 10 кадров
Идентификатор кодека                     : V_MPEG4/ISO/AVC
Продолжительность                        : 2 ч. 14 м.
Битрейт                                  : 1614 Кбит/сек
Ширина                                   : 1024 пикселя
Высота                                   : 428 пикселей
Соотношение сторон                       : 2,40:1
Режим частоты кадров                     : Постоянный
Частота кадров                           : 23,976 (24000/1001) кадра/сек
Цветовое пространство                    : YUV
Субдискретизация насыщенности            : 4:2:0
Битовая глубина                          : 8 бит
Тип развёртки                            : Прогрессивная
Бит/(Пиксели*Кадры)                      : 0.154
Размер потока                            : 1,51 Гбайт (64%)
Библиотека кодирования                   : x264 core 146 r2538 121396c
Настройки программы                      : cabac=1 / ref=10 / deblock=1:-2:-3 / analyse=0x3:0x133 / me=umh / subme=11 / psy=1 / psy_rd=0.97:0.07 / mixed_ref=1 / me_range=48 / chroma_me=1 / trellis=2 / 8x8dct=1 / cqm=0 / deadzone=21,11 / fast_pskip=1 / chroma_qp_offset=-3 / threads=6 / lookahead_threads=1 / sliced_threads=0 / nr=0 / decimate=1 / interlaced=0 / bluray_compat=0 / constrained_intra=0 / bframes=10 / b_pyramid=2 / b_adapt=2 / b_bias=0 / direct=3 / weightb=1 / open_gop=0 / weightp=2 / keyint=240 / keyint_min=23 / scenecut=40 / intra_refresh=0 / rc_lookahead=40 / rc=2pass / mbtree=0 / bitrate=1614 / ratetol=1.0 / qcomp=0.60 / qpmin=0 / qpmax=69 / qpstep=4 / cplxblur=20.0 / qblur=0.5 / vbv_maxrate=50000 / vbv_bufsize=62500 / nal_hrd=none / filler=0 / ip_ratio=1.40 / pb_ratio=1.30 / aq=1:1.00
Язык                                     : English
Default                                  : Да
Forced                                   : Нет

Аудио #1
Идентификатор                            : 2
Формат                                   : AC-3
Формат/Информация                        : Audio Coding 3
Расширение режима                        : CM (complete main)
Параметр Endianness формата              : Big
Идентификатор кодека                     : A_AC3
Продолжительность                        : 2 ч. 14 м.
Вид битрейта                             : Постоянный
Битрейт                                  : 448 Кбит/сек
Каналы                                   : 6 каналов
Расположение каналов                     : Front: L C R, Side: L R, LFE
Частота                                  : 48,0 КГц
Частота кадров                           : 31,250 кадров/сек (1536 spf)
Битовая глубина                          : 16 бит
Метод сжатия                             : С потерями
Размер потока                            : 430 Мбайт (18%)
Заголовок                                : DUB [License]
Язык                                     : Russian
Default                                  : Да
Forced                                   : Нет

Аудио #2
Идентификатор                            : 3
Формат                                   : AC-3
Формат/Информация                        : Audio Coding 3
Расширение режима                        : CM (complete main)
Параметр Endianness формата              : Big
Идентификатор кодека                     : A_AC3
Продолжительность                        : 2 ч. 14 м.
Вид битрейта                             : Постоянный
Битрейт                                  : 448 Кбит/сек
Каналы                                   : 6 каналов
Расположение каналов                     : Front: L C R, Side: L R, LFE
Частота                                  : 48,0 КГц
Частота кадров                           : 31,250 кадров/сек (1536 spf)
Битовая глубина                          : 16 бит
Метод сжатия                             : С потерями
Размер потока                            : 430 Мбайт (18%)
Заголовок                                : [Original]
Язык                                     : English
Default                                  : Нет
Forced                                   : Нет

Текст #1
Идентификатор                            : 4
Формат                                   : UTF-8
Идентификатор кодека                     : S_TEXT/UTF8
Идентификатор кодека/Информация          : UTF-8 Plain Text
Продолжительность                        : 1 ч. 37 м.
Битрейт                                  : 5 бит/сек
Count of elements                        : 84
Размер потока                            : 3,73 Кбайт (0%)
Заголовок                                : Forced
Язык                                     : Russian
Default                                  : Да
Forced                                   : Нет

Текст #2
Идентификатор                            : 5
Формат                                   : UTF-8
Идентификатор кодека                     : S_TEXT/UTF8
Идентификатор кодека/Информация          : UTF-8 Plain Text
Продолжительность                        : 2 ч. 3 м.
Битрейт                                  : 45 бит/сек
Count of elements                        : 910
Размер потока                            : 41,4 Кбайт (0%)
Заголовок                                : Full
Язык                                     : Russian
Default                                  : Нет
Forced                                   : Нет

Текст #3
Идентификатор                            : 6
Формат                                   : UTF-8
Идентификатор кодека                     : S_TEXT/UTF8
Идентификатор кодека/Информация          : UTF-8 Plain Text
Продолжительность                        : 2 ч. 3 м.
Битрейт                                  : 24 бит/сек
Count of elements                        : 826
Размер потока                            : 22,3 Кбайт (0%)
Заголовок                                : Full
Язык                                     : English
Default                                  : Нет
Forced                                   : Нет

Текст #4
Идентификатор                            : 7
Формат                                   : UTF-8
Идентификатор кодека                     : S_TEXT/UTF8
Идентификатор кодека/Информация          : UTF-8 Plain Text
Продолжительность                        : 2 ч. 10 м.
Битрейт                                  : 26 бит/сек
Count of elements                        : 992
Размер потока                            : 25,5 Кбайт (0%)
Заголовок                                : SDH
Язык                                     : English
Default                                  : Нет
Forced                                   : Нет

Меню
00:00:00.000                             : en:Chapter 1
00:08:18.540                             : en:Chapter 2
00:20:32.064                             : en:Chapter 3
00:25:28.819                             : en:Chapter 4
00:34:48.336                             : en:Chapter 5
00:40:23.546                             : en:Chapter 6
00:51:40.597                             : en:Chapter 7
01:00:18.615                             : en:Chapter 8
01:08:17.176                             : en:Chapter 9
01:14:52.071                             : en:Chapter 10
01:25:29.249                             : en:Chapter 11
01:34:35.461                             : en:Chapter 12
01:43:05.513                             : en:Chapter 13
01:50:45.973                             : en:Chapter 14
01:54:10.677                             : en:Chapter 15
02:05:21.806                             : en:Chapter 16



Скриншоты:
[+] Всего файлов в раздаче - 1:
Hostiles.2017.BDRip(AVC).OlLanDGroup.mkv2.36 GB

Показать еще раздачи по запросу недруги:
2019-03-10 U Недруги / Hostiles (2017) BDRip 720p от k.e.n & MegaPeer | D, A | Лицензия 5.75 GB ↑ 106 ↓ 44
2019-03-10 U Недруги / Hostiles (2017) BDRip от MegaPeer | Rus Transfer | Лицензия 2.18 GB ↑ 103 ↓ 17
2019-03-09 U Недруги / Hostiles (2017) BDRip от MegaPeer | Rus Transfer | Лицензия 1.46 GB ↑ 197 ↓ 98
2019-03-09 U Недруги / Hostiles (2017) BDRip 720p от селезень | Лицензия 7.77 GB ↑ 295 ↓ 134
2019-03-09 U Недруги / Hostiles (2017) BDRip 1080p от селезень | Лицензия 13.36 GB ↑ 386 ↓ 229
2019-03-09 U Недруги / Hostiles (2017) BDRip от MegaPeer | Лицензия 1.46 GB ↑ 44 ↓ 19
2018-04-21 U Недруги / Hostiles (2017) HDRip от Scarabey | iTunes 796.19 MB ↑ 105 ↓ 20

Отзывы
Зарегистрируйтесь чтобы добавить комментарий.
Обратная связь
Copyleft ©