↑↓Torrent.by
Поиск
Логин: Регистрация
Пароль: Восстановить пароль
Загрузка...

Близнецы / Still/Born (2017) WEB-DL 1080p | iTunes

Скачать bliznecy-still-born-2017-web-dl-1080p-itunes.torrent
U Магнитная ссылка Размер: 2.93 GB Раздают: 178 Качают: 54 Добавлен: 2019-03-09 18:06:57
Близнецы / Still/Born (2017) WEB-DL 1080p | iTunes

Название: Близнецы
Оригинальное название: Still/Born
Год выхода: 2017
Жанр:  ужасы, триллер
Режиссер: Брэндон Кристенсен
В ролях: Кристи Бурк, Джесси Мосс, Ребекка Олсон, Джен Гриффин, Майкл Айронсайд, Шейла Маккарти, Шон Роджерсон, Грэйс Кристенсен, Дайян Снейп, Бриттани Аллен

Описание: По древней легенде, демоны охотятся за душами близнецов, чтобы завладеть их телами в реальном мире. После потери одного из близнецов при родах Мэри испытывает постоянный страх за второго ребенка. Но чем сильнее ее страх, тем острее его чуют демоны, и тем ближе они к близнецу.

Страна: Канада
Продолжительность: 01:23:26
Перевод: Профессиональный (Дублированный) (iTunes Russia)

Файл
Формат: MKV
Качество: WEB-DL 1080p (Источник: iTunes USA/RUS)
Видео: 1920x818 (2.35:1), 25.000 fps, 4421 kbps, 0.113 bit/pixel
Аудио #1: AAC, 2 ch, 126 kbps (Дублированный iTunes Russia)
Аудио #2: AC-3, 6 ch, 384 kbps (Дублированный iTunes Russia)
Субтитры: Нет
Навигация: Есть


[+] MediaInfo
General
Unique ID                                : 214808348359382418653141482243655903265 (0xA19A95422C4A1B3FA1E1C40FEC76A821)
Complete name                            : Still.Born.2017.WEB.DL.1080p.iTunes.mkv
Format                                   : Matroska
Format version                           : Version 2
File size                                : 2.93 GiB
Duration                                 : 1 h 23 min
Overall bit rate                         : 5 028 kb/s
Encoded date                             : UTC 2019-03-09 06:09:27
Writing application                      : mkvmerge v5.6.0 ('Kenya Kane') built on May 27 2012 16:44:04
Writing library                          : libebml v1.2.3 + libmatroska v1.3.0
Cover                                    : Yes
Attachments                              : Cover.png

Video
ID                                       : 1
Format                                   : AVC
Format/Info                              : Advanced Video Codec
Format profile                           : High@L4
Format settings                          : CABAC / 5 Ref Frames
Format settings, CABAC                   : Yes
Format settings, RefFrames               : 5 frames
Codec ID                                 : V_MPEG4/ISO/AVC
Duration                                 : 1 h 23 min
Bit rate                                 : 4 421 kb/s
Width                                    : 1 920 pixels
Height                                   : 818 pixels
Display aspect ratio                     : 2.35:1
Frame rate mode                          : Constant
Frame rate                               : 25.000 FPS
Color space                              : YUV
Chroma subsampling                       : 4:2:0
Bit depth                                : 8 bits
Scan type                                : Progressive
Bits/(Pixel*Frame)                       : 0.113
Stream size                              : 2.58 GiB (98%)
Language                                 : English
Default                                  : Yes
Forced                                   : No
Color range                              : Limited
Color primaries                          : BT.709
Transfer characteristics                 : BT.709
Matrix coefficients                      : BT.709

Audio #1
ID                                       : 2
Format                                   : AAC
Format/Info                              : Advanced Audio Codec
Format profile                           : HE-AAC / LC
Format settings                          : Explicit
Codec ID                                 : A_AAC-2
Duration                                 : 1 h 23 min
Channel(s)                               : 2 channels
Channel positions                        : Front: L R
Sampling rate                            : 96.0 kHz / 48.0 kHz
Frame rate                               : 46.875 FPS (1024 SPF)
Compression mode                         : Lossy
Title                                    : Дублированный 2.0 (iTunes Russia)
Language                                 : Russian
Default                                  : Yes
Forced                                   : No

Audio #2
ID                                       : 3
Format                                   : AC-3
Format/Info                              : Audio Coding 3
Codec ID                                 : A_AC3
Duration                                 : 1 h 23 min
Bit rate mode                            : Constant
Bit rate                                 : 384 kb/s
Channel(s)                               : 6 channels
Channel positions                        : Front: L C R, Side: L R, LFE
Sampling rate                            : 48.0 kHz
Frame rate                               : 31.250 FPS (1536 SPF)
Bit depth                                : 16 bits
Compression mode                         : Lossy
Stream size                              : 229 MiB (8%)
Title                                    : Дублированный 5.1 (iTunes Russia)
Language                                 : Russian
Service kind                             : Complete Main
Default                                  : No
Forced                                   : No

Menu
00:00:00.000                             : :Chapter 01
00:04:30.240                             : :Chapter 02
00:10:49.200                             : :Chapter 03
00:17:51.400                             : :Chapter 04
00:24:20.039                             : :Chapter 05
00:29:13.719                             : :Chapter 06
00:34:18.719                             : :Chapter 07
00:39:16.519                             : :Chapter 08
00:45:40.279                             : :Chapter 09
00:51:42.679                             : :Chapter 10
00:57:09.959                             : :Chapter 11
01:03:11.879                             : :Chapter 12
01:09:56.038                             : :Chapter 13



Скриншоты:
[+] Всего файлов в раздаче - 1:
Still.Born.2017.WEB.DL.1080p.iTunes.mkv2.93 GB

Похожие раздачи по запросу - близнецы:
2019-03-10 U Близнецы / Still/Born (2017) WEB-DLRip | iTunes 1.46 GB ↑ 149 ↓ 21
2018-07-01 U Близнецы / Gemini (2017) BDRip-AVC от ivanes20031987 | HDRezka Studio 1.45 GB ↑ 36 ↓ 11
2018-06-30 U Близнецы / Gemini (2017) BDRip от MegaPeer | HDRezka Studio 1.45 GB ↑ 76 ↓ 30
2018-06-30 U Близнецы / Gemini (2017) BDRip 1080p от ExKinoRay | HDRezka Studio 7.39 GB ↑ 37 ↓ 15
2018-06-28 U Близнецы / Gemini (2017) WEBRip | L2 1.36 GB ↑ 37 ↓ 14
2013-10-06 U Семейные истории: Близнецы / Family Tales: The Sisters (2013) PC 1К296.03 MB ↑ 37 ↓ 1

Отзывы
Зарегистрируйтесь чтобы добавить комментарий.
Обратная связь
Copyleft ©