↑↓Torrent.by
Поиск
Логин: Регистрация
Пароль: Восстановить пароль
Загрузка...

Властелины хаоса / Lords of Chaos (2018) WEB-DL 1080p от OlLanDGroup | HDRezka Studio

Скачать vlasteliny-haosa-lords-of-chaos-2018-web-dl-1080p-ot-ollandgroup-hdrezka-studio.torrent
U Магнитная ссылка Размер: 4.74 GB Раздают: 57 Качают: 15 Добавлен: 2019-03-10 04:36:17
Властелины хаоса / Lords of Chaos (2018) WEB-DL 1080p от OlLanDGroup | HDRezka Studio

Властелины хаоса / Lords of Chaos
«Based on Truth and Lies»

Год выпуска: 2018
Страна: Великобритания, Швеция
Производство: 4 1/2 Film, Chimney, Eleven Arts
Жанр:  Драма, биография, криминал, музыка

Режиссёр: Йонас Окерлунд
В ролях: Рори Калкин, Эмори Коэн, Джек Килмер, Скай Феррейра, Вальтер Скарсгард, Энтони Де Ла Торре, Джонатан Барнвелл, Сэм Коулман, Уилсон Оксенкнехт, Люсиан Чарльз Колье

Перевод: Профессиональный многоголосый | [HDRezka Studio]
Субтитры: Английские (полные)
Реклама: Отсутствует

Описание: Норвегия, 1987 год. Молодой человек, называющий себя Евронимус, пытается создать новое направление тяжелой музыки — норвежский блэк-метал. Основанная им группа Mayhem находит идеального вокалиста из Швеции, но вскоре тот кончает с собой. Евронимус организовывает так называемый Чёрный Круг, общество для своих, куда принимает новенького по имени Кристиан, но называющего себя Варг. Варг считает, что настоящим блэк-металистам нужно не ограничиваться песнями с сатанинскими текстами, а действовать, например, — сжигать церкви.

Качество: WEB-DL 1080p | iTunes Version |
Продолжительность: 01:57:27

Формат: MKV
Видео кодек: MPEG-4 AVC
Аудио кодек: AC3
Видео: 1912x1036 (1.85:1), 24,000 fps, x264 ~5 197 kbps avg, 0.109 bit/pixel
Аудио #1: 48 kHz, AC3 Dolby Digital, 2 (L,R) ch, ~192.00 kbps avg | RUS (HDRezka Studio)
Аудио #2: 48 kHz, AC3 Dolby Digital, 3/2 (L,C,R,l,r) + LFE ch, ~384.00 kbps avg | ENG

Дата премьеры (мир): 23 января 2018
Дата премьеры (РФ):
Цифровой релиз:

Релиз:


[+] MediaInfo

Общее
Уникальный идентификатор                 : 139862811913792591044132475585886807971 (0x693899069BEFDA3538FF2F5BE6C1E7A3)
Полное имя                               : F:OlLanDGroupLords.of.Chaos.2018.WEB-DL(1080p).OllanDGroup.mkv
Формат                                   : Matroska
Версия формата                           : Version 4 / Version 2
Размер файла                             : 4,74 Гбайт
Продолжительность                        : 1 ч. 57 м.
Общий поток                              : 5775 Кбит/сек
Название фильма                          : Lords.of.Chaos.2018   #TorpedoUK#
Дата кодирования                         : UTC 2019-03-09 14:39:19
Программа кодирования                    : mkvmerge v29.0.0 ('Like It Or Not') 64-bit
Библиотека кодирования                   : libebml v1.3.6 + libmatroska v1.4.9

Видео
Идентификатор                            : 1
Формат                                   : AVC
Формат/Информация                        : Advanced Video Codec
Профиль формата                          : High@L4
Параметр CABAC формата                   : Да
Параметр ReFrames формата                : 4 кадра
Идентификатор кодека                     : V_MPEG4/ISO/AVC
Продолжительность                        : 1 ч. 57 м.
Битрейт                                  : 5197 Кбит/сек
Ширина                                   : 1912 пикселей
Высота                                   : 1036 пикселей
Соотношение сторон                       : 1,85:1
Режим частоты кадров                     : Постоянный
Частота кадров                           : 24,000 кадра/сек
Цветовое пространство                    : YUV
Субдискретизация насыщенности            : 4:2:0
Битовая глубина                          : 8 бит
Тип развёртки                            : Прогрессивная
Бит/(Пиксели*Кадры)                      : 0.109
Размер потока                            : 4,26 Гбайт (90%)
Заголовок                                : Lords.of.Chaos.2018.1080p.WEB-DL.DD5.1.H264-FGT
Язык                                     : English
Default                                  : Да
Forced                                   : Нет
Цветовой диапазон                        : Limited
Основные цвета                           : BT.709
Характеристики трансфера                 : BT.709
Коэффициенты матрицы                     : BT.709

Аудио #1
Идентификатор                            : 2
Формат                                   : AC-3
Формат/Информация                        : Audio Coding 3
Расширение режима                        : CM (complete main)
Параметр Endianness формата              : Big
Идентификатор кодека                     : A_AC3
Продолжительность                        : 1 ч. 57 м.
Вид битрейта                             : Постоянный
Битрейт                                  : 192 Кбит/сек
Каналы                                   : 2 канала
Расположение каналов                     : Front: L R
Частота                                  : 48,0 КГц
Частота кадров                           : 31,250 кадров/сек (1536 spf)
Битовая глубина                          : 16 бит
Метод сжатия                             : С потерями
Задержка видео                           : -42 мс.
Размер потока                            : 161 Мбайт (3%)
Заголовок                                : MVO [HDRezka Studio]
Язык                                     : Russian
Default                                  : Да
Forced                                   : Нет

Аудио #2
Идентификатор                            : 3
Формат                                   : AC-3
Формат/Информация                        : Audio Coding 3
Расширение режима                        : CM (complete main)
Параметр Endianness формата              : Big
Идентификатор кодека                     : A_AC3
Продолжительность                        : 1 ч. 57 м.
Вид битрейта                             : Постоянный
Битрейт                                  : 384 Кбит/сек
Каналы                                   : 6 каналов
Расположение каналов                     : Front: L C R, Side: L R, LFE
Частота                                  : 48,0 КГц
Частота кадров                           : 31,250 кадров/сек (1536 spf)
Битовая глубина                          : 16 бит
Метод сжатия                             : С потерями
Задержка видео                           : -42 мс.
Размер потока                            : 323 Мбайт (7%)
Заголовок                                : [Original]
Язык                                     : English
Default                                  : Нет
Forced                                   : Нет

Текст
Идентификатор                            : 4
Формат                                   : UTF-8
Идентификатор кодека                     : S_TEXT/UTF8
Идентификатор кодека/Информация          : UTF-8 Plain Text
Продолжительность                        : 1 ч. 50 м.
Битрейт                                  : 43 бит/сек
Count of elements                        : 1174
Размер потока                            : 35,5 Кбайт (0%)
Заголовок                                : Full
Язык                                     : English
Default                                  : Нет
Forced                                   : Нет



Скриншоты:
[+] Всего файлов в раздаче - 1:
Lords.of.Chaos.2018.WEB-DL(1080p).OllanDGroup.mkv4.74 GB

Похожие раздачи по запросу - властелины:
2018-01-26 U Акулы: Властелины подводного мира / Sharks: Kings of the Ocean (2013) BDRip 1080p | P1 4.76 GB ↑ 33 ↓ 15
2015-12-06 U Властелины времени / Les maîtres du temps (1982) DVDRip-AVC | D, P 1К4.01 GB ↑ 38 ↓ 39
2014-03-08 U Властелины времени / Les maîtres du temps (1982) DVDRip-AVC 2К1.45 GB ↑ 106 ↓ 21
2014-02-28 U Хи-Мэн и Властелины Вселенной / He-Man and the Masters of the Universe [S01-S02] (1983-1985) DVDRip 30.37 GB ↑ 33 ↓ 36

Отзывы
Зарегистрируйтесь чтобы добавить комментарий.
Обратная связь
Copyleft ©